<?xml version="1.0" standalone="no"?>
<!DOCTYPE svg PUBLIC "-//W3C//DTD SVG 1.1//EN" "http://www.w3.org/Graphics/SVG/1.1/DTD/svg11.dtd">
<svg xmlns="http://www.w3.org/2000/svg"><metadata>This SVG WebFont was generated by YouWorkForThem.
Copyright (c) 2015 by thmbnl. graphic design. All rights reserved</metadata><defs><font horiz-adv-x="1662" id="ywftsvg"><font-face ascent="1638" bbox="-75.8333 -516 2425 2044" cap-height="1516" descent="-410" font-family="" font-stretch="normal" font-weight="700" panose-1="0 0 8 0 0 0 0 0 0 0" underline-position="0" underline-thickness="0" unicode-range="U+0020-25CA" units-per-em="2048" x-height="1015.5"/><missing-glyph d="M831 1638v-2027h-643v2027h643zM676 1503h-336v-67h133v-76h-135v-66h338v66h-135v76h135v67zM541 1241h-203v-211h338v70h-135v141zM473 1171v-71h-67v71h67zM676 975h-338v-66h135v-75h-135v-68h203v143h135v66zM676 854h-68v-133h-270v-70h338v203zM676 606h-203v-112 h68v45h67v-95h-202v162h-68v-229h338v229zM676 256h-338v-229h338v229zM608 188v-94h-202v94h202zM676 -20h-338v-66h143l-143 -96v-68h338v68h-207l141 96h66v66z" horiz-adv-x="1013"/><glyph d="M831 1638v-2027h-643v2027h643zM676 1503h-336v-67h133v-76h-135v-66h338v66h-135v76h135v67zM541 1241h-203v-211h338v70h-135v141zM473 1171v-71h-67v71h67zM676 975h-338v-66h135v-75h-135v-68h203v143h135v66zM676 854h-68v-133h-270v-70h338v203zM676 606h-203v-112 h68v45h67v-95h-202v162h-68v-229h338v229zM676 256h-338v-229h338v229zM608 188v-94h-202v94h202zM676 -20h-338v-66h143l-143 -96v-68h338v68h-207l141 96h66v66z" glyph-name=".notdef" horiz-adv-x="1013"/><glyph glyph-name="glyph1" horiz-adv-x="0"/><glyph glyph-name="glyph2" horiz-adv-x="681"/><glyph glyph-name="space" horiz-adv-x="563" unicode=" "/><glyph d="M205 328q-55 0 -94 39t-39 94v921q0 55 39 94.5t94 39.5t94 -39t39 -95v-921q0 -55 -39 -94t-94 -39zM326 122q0 -50 -35 -86t-86 -36t-86 36t-35 86t35 86t86 36t86 -36t35 -86z" glyph-name="exclam" horiz-adv-x="409" unicode="!"/><glyph d="M63 1386q-10 43 12.5 81t65.5 47t80 -13t47 -67l47 -197q8 -39 -7 -75t-58 -54t-85 6.5t-54 71.5zM371 1386q-10 43 12.5 81t64.5 47t79.5 -13t47.5 -67l48 -197q8 -39 -7.5 -75t-58.5 -54t-85 6.5t-54 71.5z" glyph-name="quotedbl" horiz-adv-x="677" unicode="&quot;"/><glyph d="M1300 1110q41 0 71 -29.5t30 -71.5t-30 -72t-71 -30h-184l-51 -282h133q43 0 72.5 -30t29.5 -72t-29.5 -71.5t-72.5 -29.5h-174l-66 -340q-8 -47 -42.5 -67.5t-75.5 -14.5t-64.5 42t-15.5 79l57 301h-303l-65 -340q-8 -47 -42 -67.5t-76 -14.5t-65.5 42t-15.5 79l57 301 h-155q-41 0 -71 29.5t-30 71.5t30 72t71 30h194l57 282h-149q-43 0 -72.5 30t-29.5 72t29.5 71.5t72.5 29.5h186l66 324q8 43 42 65.5t76 16.5t65.5 -42t15.5 -75l-58 -289h303l62 324q8 43 43 65.5t76 16.5t66.5 -42t16.5 -75l-57 -289h143zM858 625l53 282h-301l-57 -282 h305z" glyph-name="numbersign" horiz-adv-x="1441" unicode="#"/><glyph d="M608 -102q0 -51 -35 -86t-85 -35t-85.5 34.5t-35.5 86.5v102q-150 20 -248 88q-45 31 -54.5 84t21.5 98t84 56.5t98 -19.5q70 -53 174.5 -48t161.5 79t40 162t-99 131q-29 14 -154 61t-182 105q-131 131 -121 311q6 121 80 223.5t199 153.5v114q0 51 35.5 86t85.5 35 t85 -34.5t35 -86.5v-81q102 -12 178 -62q45 -27 59.5 -80t-13.5 -99t-80 -59.5t-99 13.5q-94 53 -195.5 9t-107.5 -146q0 -76 44 -113t134 -61q168 -47 270.5 -158.5t113.5 -267.5t-76.5 -285t-227.5 -180v-131z" glyph-name="dollar" horiz-adv-x="976" unicode="$"/><glyph d="M592 53q-16 -35 -54 -48t-79 6t-53.5 59.5t8.5 81.5l690 1314q20 37 61 48.5t78 -7t48.5 -59.5t-9.5 -80zM407 829q-142 0 -244 101.5t-102 242.5t101.5 244t243.5 103t244 -102t102 -244t-101.5 -243.5t-243.5 -101.5zM405.5 1315q-57.5 0 -98.5 -42.5t-41 -100.5 t41 -98t98.5 -40t99.5 40t42 97.5t-42 100.5t-99.5 43zM1289 0q-142 0 -243.5 101.5t-101.5 243.5t101.5 243.5t243.5 101.5t243.5 -101.5t101.5 -243.5t-101.5 -243.5t-243.5 -101.5zM1290.5 485q-57.5 0 -99.5 -42t-42 -99t42 -98t99.5 -41t98.5 41t41 98t-41 99t-98.5 42 z" glyph-name="percent" horiz-adv-x="1685" unicode="%"/><glyph d="M545 -23q-195 0 -339.5 143.5t-144.5 344.5q0 113 48.5 212t136.5 167q-106 118 -106 280t120.5 282t290.5 120t288.5 -120t118.5 -274t-80.5 -261t-207.5 -146l174 -205l80 164q20 45 70 62.5t95.5 -5t61.5 -69.5t-4 -92l-127 -265l96 -112q33 -39 29 -90t-42 -83 t-90 -28t-85 43l-49 59q-139 -127 -334 -127zM550 1282q-69 0 -117 -48t-48 -117t48 -117t117 -48t117 49t48 117t-48 116t-117 48zM309 465q0 -78 42 -138.5t103.5 -87t134.5 -15t130 64.5l-316 370q-94 -72 -94 -194z" glyph-name="ampersand" horiz-adv-x="1210" unicode="&amp;"/><glyph d="M63 1386q-10 43 12.5 81t65.5 47t80 -13t47 -67l47 -197q8 -39 -7 -75t-58 -54t-85 6.5t-54 71.5z" glyph-name="quotesingle" horiz-adv-x="370" unicode="'"/><glyph d="M92 691q0 423 221 771q25 39 72 47.5t82 -16.5q39 -23 48 -68t-13 -82q-190 -299 -190 -650t186 -652q25 -33 16.5 -78t-47.5 -72q-29 -25 -77 -16.5t-77 51.5q-221 342 -221 765z" glyph-name="parenleft" horiz-adv-x="569" unicode="("/><glyph d="M258 693q0 351 -190 650q-25 37 -13.5 81t47.5 69t82.5 16.5t71.5 -47.5q221 -360 221 -774t-221 -762q-25 -37 -70 -47.5t-83 13.5t-47 69t16 80q186 301 186 652z" glyph-name="parenright" horiz-adv-x="569" unicode=")"/><glyph d="M831 1165q33 0 56.5 -22.5t23.5 -56.5t-23.5 -57t-56.5 -23h-159l112 -111q23 -23 23 -56.5t-22.5 -56t-56.5 -22.5t-56 22l-111 113v-156q0 -33 -23.5 -56.5t-57.5 -23.5t-56.5 23t-22.5 57v156l-112 -113q-23 -23 -56.5 -23.5t-57.5 23.5t-23.5 57t22.5 56l111 111 h-154q-33 0 -56.5 23t-23.5 57t22.5 56.5t57.5 22.5h154l-111 111q-23 25 -22.5 58.5t22.5 58.5q25 23 58.5 22.5t56.5 -22.5l112 -113v156q0 35 22.5 57.5t56.5 22.5t57.5 -24t23.5 -56v-156l111 113q25 23 56.5 22.5t55.5 -22.5q23 -25 23 -59t-23 -58l-112 -111h159z" glyph-name="asterisk" horiz-adv-x="962" unicode="*"/><glyph d="M1036 668q47 0 79 -31t32 -76t-32 -76.5t-79 -31.5h-329v-342q0 -47 -31 -79t-77 -32t-76.5 31.5t-30.5 79.5v342h-330q-47 0 -79 31.5t-32 76.5t32 76t79 31h330v317q0 47 30.5 79t76.5 32t77 -32t31 -79v-317h329z" glyph-name="plus" horiz-adv-x="1187" unicode="+"/><glyph d="M250 -150q-12 -47 -54 -71.5t-86 -6.5t-58.5 54.5t-6.5 75.5l47 196q10 45 47 67.5t80 13.5t65.5 -47t12.5 -81z" glyph-name="comma" horiz-adv-x="360" unicode=","/><glyph d="M586 487h-387q-51 0 -89 38t-38 89.5t37.5 89t89.5 37.5h387q53 0 90 -37.5t37 -89t-37 -89.5t-90 -38z" glyph-name="hyphen" horiz-adv-x="784" unicode="-"/><glyph d="M297 122q0 -50 -36 -86t-86 -36t-87 36t-37 86t37 87t87 37t86 -37t36 -87z" glyph-name="period" horiz-adv-x="348" unicode="."/><glyph d="M229 63q-14 -39 -53 -56t-80 -3t-57 53t0 80l508 1319q16 39 55 55.5t78 2t56.5 -53.5t0.5 -78z" glyph-name="slash" horiz-adv-x="786" unicode="/"/><glyph d="M590 -12q-205 0 -351.5 145.5t-146.5 351.5v545q0 207 146.5 352.5t351.5 145.5t350 -145.5t145 -352.5v-545q0 -207 -145 -352t-350 -145zM358 1030v-545q0 -96 68 -164.5t164 -68.5t163.5 68.5t67.5 164.5v545q0 96 -67.5 165t-163.5 69t-164 -69t-68 -165z" glyph-name="zero" horiz-adv-x="1177" unicode="0"/><glyph d="M449 1516q55 0 90.5 -39t35.5 -95v-1249q0 -55 -38.5 -94t-94 -39t-94.5 39t-39 94v1157h-145q-45 0 -79 33t-34 80t34 80t79 33h285z" glyph-name="one" horiz-adv-x="698" unicode="1"/><glyph d="M909 268q55 0 94 -39t39 -95t-38.5 -95t-94.5 -39h-673q-82 0 -120 75t13 138l571 696q59 74 50 169.5t-82 156.5q-74 59 -169.5 50t-154.5 -83q-33 -39 -84 -44t-92 28t-47 85t29 91q127 154 325.5 173t352.5 -107t173 -324.5t-106 -351.5l-395 -484h409z" glyph-name="two" horiz-adv-x="1134" unicode="2"/><glyph d="M1010 490q0 -216 -143.5 -359t-346.5 -143q-135 0 -250.5 70.5t-181.5 189.5q-27 49 -11.5 103.5t63.5 80.5t100.5 8t81.5 -69q55 -100 157.5 -116.5t184 49t81.5 163.5t-61 164.5t-139 70.5t-121 41t-43 91t41 91.5t100 41.5t103.5 45.5t44.5 107.5t-48.5 108t-113 39 t-103.5 -47t-93 -48.5t-95 31.5t-43 92.5t33 95.5q88 104 216 129.5t239.5 -15.5t191.5 -146.5t80 -250.5t-98 -256q174 -146 174 -362z" glyph-name="three" horiz-adv-x="1112" unicode="3"/><glyph d="M1059 526q51 0 86 -36t35 -86t-35 -85.5t-86 -35.5h-37v-152q0 -53 -39 -92t-93 -39t-93 39t-39 92v152h-549q-82 0 -115 63.5t12 126.5l676 989q38 54 100 54t101 -40t39 -94v-856h37zM758 526v469l-320 -469h320z" glyph-name="four" horiz-adv-x="1261" unicode="4"/><glyph d="M510 1042q219 0 373.5 -154.5t154.5 -372.5t-154.5 -372.5t-376.5 -154.5t-380 164q-37 39 -35 94t41 94q41 37 95 35t104 -52t131.5 -64.5t148 14t113.5 93t47 160.5t-77 174t-172 78t-161 -48t-126 -35.5t-82 59.5t-9 143l74 506q8 49 46 81t87 32h477q53 0 92.5 -39 t39.5 -93t-39 -93.5t-93 -39.5h-364l-31 -215q37 6 76 6z" glyph-name="five" horiz-adv-x="1130" unicode="5"/><glyph d="M1167 513q0 -216 -154.5 -370.5t-372.5 -154.5t-372.5 154.5t-154.5 371.5q0 139 59 246l410 694q27 47 82 60.5t101 -15.5t59.5 -83t-15.5 -101l-164 -273q217 -2 369.5 -157.5t152.5 -371.5zM640 252q108 0 185.5 77t77.5 187t-77.5 186t-187.5 76t-185.5 -75.5 t-75.5 -186.5t77.5 -187.5t185.5 -76.5z" glyph-name="six" horiz-adv-x="1239" unicode="6"/><glyph d="M205 1251q-55 0 -94 39t-39 93t39 93.5t94 39.5h635q76 0 114 -57.5t13 -123.5l-482 -1249q-20 -51 -69.5 -73.5t-101.5 -0.5t-74.5 70.5t-1.5 99.5l413 1069h-446z" glyph-name="seven" horiz-adv-x="1038" unicode="7"/><glyph d="M1087 481q0 -205 -143 -349t-348 -144t-349.5 144t-144.5 349q0 119 52.5 220.5t142.5 170.5q-96 113 -96 269t115.5 271.5t279.5 115.5t279.5 -116t115.5 -272t-98 -268q90 -70 142 -171t52 -220zM595 1284q-62 0 -106.5 -44t-44.5 -106t44 -106.5t106 -44.5t106.5 44.5 t44.5 106.5t-44 106t-106 44zM596 233q102 0 175 73t73 174t-73 174t-175 73t-175 -71.5t-73 -174t73 -175.5t175 -73z" glyph-name="eight" horiz-adv-x="1189" unicode="8"/><glyph d="M72 1002q0 218 154.5 373t373.5 155t374.5 -154.5t155.5 -374.5q0 -158 -81 -292l-392 -650q-29 -47 -82 -61t-100 14.5t-60.5 81.5t15.5 101l164 276q-217 4 -369.5 158.5t-152.5 372.5zM600.5 1264q-108.5 0 -185.5 -77t-77 -185.5t77 -186.5t187 -78t186 78t76 186.5 t-77.5 185.5t-186 77z" glyph-name="nine" horiz-adv-x="1181" unicode="9"/><glyph d="M295 901q0 -49 -36 -85t-86 -36t-86 36t-36 85t36 86t86 37t86 -37t36 -86zM295 122q0 -50 -36 -86t-86 -36t-86 36t-36 86t36 86t86 36t86 -36t36 -86z" glyph-name="colon" horiz-adv-x="356" unicode=":"/><glyph d="M307 899q0 -51 -37 -86t-87 -35t-87 35t-37 86t37 88t87 37t87 -37t37 -88zM260 -150q-12 -47 -54 -71.5t-85 -6.5t-58.5 54.5t-7.5 75.5l47 196q10 45 47 67.5t80 13.5t65.5 -47t12.5 -81z" glyph-name="semicolon" horiz-adv-x="370" unicode=";"/><glyph d="M770 20l-635 400q-55 35 -53 94t53 92l635 400q37 25 81 16.5t70 -47.5t15.5 -84t-49.5 -68l-488 -311l488 -309q39 -25 49 -69t-14 -83t-67.5 -48.5t-84.5 17.5z" glyph-name="less" horiz-adv-x="991" unicode="&lt;"/><glyph d="M1010 635h-822q-45 0 -75.5 30.5t-30.5 75.5t30.5 78t75.5 33h822q45 0 77.5 -33t32.5 -78t-32.5 -75.5t-77.5 -30.5zM1010 291h-822q-45 0 -75.5 32.5t-30.5 77.5t30.5 78t75.5 33h822q45 0 77.5 -33t32.5 -78t-32.5 -77.5t-77.5 -32.5z" glyph-name="equal" horiz-adv-x="1191" unicode="="/><glyph d="M221 20q-41 -27 -85 -17.5t-66 48.5q-25 39 -14.5 83t48.5 69l488 309l-488 311q-39 23 -49 68t15 84q27 39 70.5 47t80.5 -16l635 -400q51 -33 53 -92t-53 -94z" glyph-name="greater" horiz-adv-x="991" unicode=">"/><glyph d="M328 723q0 170 139 170q68 0 120 53t52 127t-52.5 126t-116.5 52q-127 0 -175 -108q-20 -51 -71.5 -71.5t-100.5 1.5q-51 20 -71.5 70.5t-0.5 101.5q53 123 164 197t246 74q182 0 312 -130.5t130 -312.5q0 -147 -87 -264t-224 -158v-190q0 -55 -39 -94t-93 -39t-93 39 t-39 94v262zM588 120q0 -50 -35 -85t-85 -35t-85 35t-35 85t35 86t85 36t85 -36t35 -86z" glyph-name="question" horiz-adv-x="964" unicode="?"/><glyph d="M834 1530q141 0 269 -48t224 -130t164 -193.5t111.5 -308t-86.5 -451.5q-57 -111 -168 -145.5t-216.5 14.5t-150.5 162q-90 -53 -188 -53q-154 0 -262.5 108.5t-108.5 262t108.5 261t262.5 107.5q98 0 180 -47q31 51 81 51t79.5 -29.5t29.5 -70.5v-481q4 -74 74 -88.5 t102 55.5q51 115 55.5 234.5t-36.5 223t-115 185.5t-181.5 129t-227.5 47q-236 0 -402 -166t-166 -401q0 -180 102.5 -323.5t264.5 -207t330 -20.5q41 10 77.5 -12.5t45.5 -63.5t-13 -77t-63 -46q-231 -55 -451.5 31t-358 280.5t-137.5 438.5q0 319 226 545.5t545 226.5z M792 582q69 0 116.5 48t47.5 117t-48 117.5t-116 48.5t-116.5 -49.5t-48.5 -117.5t48 -116t117 -48z" glyph-name="at" horiz-adv-x="1665" unicode="@"/><glyph d="M746 1518q90 0 128 -78l551 -1256q20 -53 0 -103t-69 -72.5t-103.5 -3t-74.5 68.5l-86 198h-691l-86 -198q-20 -51 -71.5 -69.5t-103.5 2.5t-71.5 73.5t3.5 103.5l551 1256q33 78 123 78zM516 539h461l-232 522z" glyph-name="A" horiz-adv-x="1507" unicode="A"/><glyph d="M1004 454q0 -194 -130.5 -324t-314.5 -130h-334q-55 0 -94 39t-39 94v1249q0 55 39 94.5t94 39.5h289q184 0 314 -130.5t130 -305.5t-108 -300q154 -132 154 -326zM358 1251v-360h156q74 0 127 52t53 127t-53 128t-127 53h-156zM559 264q74 0 127 54t53 128t-53 126.5 t-127 52.5h-201v-361h201z" glyph-name="B" horiz-adv-x="1064" unicode="B"/><glyph d="M821 -12q-317 0 -543.5 226t-226.5 544t226.5 544t543.5 226q262 0 469 -160q45 -33 52.5 -87t-26.5 -98t-89.5 -51.5t-98.5 25.5q-115 92 -260 102.5t-265 -47t-203 -179.5t-83 -259t52.5 -241.5t139.5 -169t190.5 -94t218 -8t210.5 94.5q43 35 98.5 28t88.5 -51 t25.5 -99.5t-50.5 -88.5q-211 -157 -469 -157z" glyph-name="C" horiz-adv-x="1415" unicode="C"/><glyph d="M553 1518q315 0 537.5 -222.5t222.5 -536.5t-222.5 -536.5t-537.5 -222.5h-336q-53 0 -89 39t-36 94v1251q0 55 39 94.5t94 39.5h328zM553 266q205 0 349.5 144.5t144.5 348.5t-144.5 348t-349.5 144h-195v-985h195z" glyph-name="D" horiz-adv-x="1363" unicode="D"/><glyph d="M762 266q55 0 94 -39t39 -94t-39 -94t-94 -39h-537q-55 0 -94 39t-39 94v1249q0 55 39 94.5t94 39.5h537q55 0 94 -39t39 -94.5t-39 -94.5t-94 -39h-404v-377h385q47 0 80 -33.5t33 -80.5t-32.5 -80t-80.5 -33h-385v-379h404z" glyph-name="E" horiz-adv-x="966" unicode="E"/><glyph d="M743 872q47 0 80 -32.5t33 -79.5t-32.5 -80t-80.5 -33h-385v-514q0 -55 -39 -94t-93 -39t-94 39t-40 94v1249q0 55 40 94.5t93 39.5h535q55 0 94 -39t39 -94.5t-39 -94.5t-94 -39h-402v-377h385z" glyph-name="F" horiz-adv-x="923" unicode="F"/><glyph d="M810 -12q-314 0 -531.5 225t-217.5 543t226.5 545t546.5 227q260 0 469 -160q43 -33 50 -87t-26 -99q-35 -43 -89 -50.5t-99 25.5q-131 105 -323 105t-340 -147.5t-148 -357.5t140 -356.5t347 -146.5q172 0 303 107.5t168 277.5h-467q-47 0 -79.5 33t-32.5 80t32.5 79.5 t79.5 32.5h619q51 0 90 -41t37 -96q-13 -309 -227 -524t-528 -215z" glyph-name="G" horiz-adv-x="1636" unicode="G"/><glyph d="M1009.5 1516q55.5 0 94.5 -39t39 -95v-1249q0 -55 -39 -94t-94.5 -39t-94 39t-38.5 94v512h-519v-512q0 -55 -38.5 -94t-94 -39t-94.5 39t-39 94v1249q0 55 39 94.5t94.5 39.5t94 -39t38.5 -95v-512h519v512q0 55 38.5 94.5t94 39.5z" glyph-name="H" horiz-adv-x="1224" unicode="H"/><glyph d="M224 0q-54 0 -93 39t-39 94v1249q0 55 39 94.5t93 39.5t93 -39t39 -95v-1249q0 -55 -39 -94t-93 -39z" glyph-name="I" horiz-adv-x="438" unicode="I"/><glyph d="M195 -14q-55 0 -94.5 38.5t-39.5 94t39 94.5t102 39t115 52t52 142v936q0 55 38.5 94.5t94 39.5t94.5 -39t39 -95v-936q1 -190 -123 -325t-317 -135z" glyph-name="J" horiz-adv-x="727" unicode="J"/><glyph d="M358 133q0 -55 -38.5 -94t-94 -39t-94.5 39t-39 94v1249q0 55 39 94.5t94.5 39.5t94 -39t38.5 -95v-417l381 471q35 43 90.5 49t97.5 -29t48 -90t-29 -96l-414 -510l449 -539q35 -43 31 -98t-45 -90t-97.5 -31t-91.5 49l-420 504v-422z" glyph-name="K" horiz-adv-x="1062" unicode="K"/><glyph d="M764 0h-539q-55 0 -94 39t-39 94v1249q0 55 39 94.5t94.5 39.5t94 -39t38.5 -95v-1116h406q53 0 92 -39t39 -94t-39 -94t-92 -39z" glyph-name="L" horiz-adv-x="935" unicode="L"/><glyph d="M1595 1382v-1249q0 -55 -38.5 -94t-92.5 -39t-93.5 39t-39.5 94v770l-385 -784q-33 -63 -102.5 -63.5t-100.5 63.5l-385 784v-770q0 -55 -38.5 -94t-94 -39t-94.5 39t-39 94v1249q0 80 82 121.5t128.5 -9t77.5 -121.5t464 -951q428 870 456 936q51 106 86 133 q63 47 136 9t73 -118z" glyph-name="M" horiz-adv-x="1677" unicode="M"/><glyph d="M1136 1516q54 0 93 -39t39 -95v-1249q0 -55 -39 -94t-101 -39t-102 57q-8 14 -339 490t-331 481v-895q0 -55 -39 -94t-93 -39t-93 39t-39 94v1249q0 57 39 95.5t84 38.5t73.5 -19.5t42 -36t67.5 -95.5t606 -878v895q0 55 39 94.5t93 39.5z" glyph-name="N" horiz-adv-x="1349" unicode="N"/><glyph d="M830 1528q318 0 545 -225.5t227 -545t-227 -544.5t-545 -225t-543.5 225t-225.5 544.5t225.5 545t543.5 225.5zM829 1262q-211 0 -357 -148.5t-146 -356.5t147 -355.5t357 -147.5t357.5 147.5t147.5 356.5t-147.5 356.5t-358.5 147.5z" glyph-name="O" unicode="O"/><glyph d="M561 1516q188 0 321.5 -134.5t133.5 -321.5t-133 -321.5t-322 -134.5h-201v-471q0 -55 -39.5 -94t-95 -39t-94.5 39t-39 94v1249q0 55 39 94.5t94 39.5h336zM561 870q78 0 133.5 56.5t55.5 133.5t-55.5 133t-133.5 56h-201v-379h201z" glyph-name="P" horiz-adv-x="1046" unicode="P"/><glyph d="M1432 0q-48 0 -80 33l-86 84q-195 -133 -435 -133q-317 0 -543.5 225t-226.5 544.5t226.5 545t544.5 225.5t544 -225.5t226 -544.5q0 -275 -170 -484l77 -80q33 -33 32 -76.5t-31 -78.5t-78 -35zM831 250q129 0 242 59l-78 78q-33 33 -32.5 79t32.5 81q33 33 80 33 t80 -33l86 -88q96 131 96 295q0 209 -147.5 356t-357.5 147t-357 -147t-147 -356t147 -356.5t356 -147.5z" glyph-name="Q" unicode="Q"/><glyph d="M356 604v-471q0 -55 -39 -94t-93 -39t-93 39t-39 94v1249q0 55 38 94.5t93 39.5h336q186 0 320.5 -133.5t134.5 -321.5q0 -143 -82 -260t-211 -166l270 -426q31 -45 18.5 -100t-57.5 -83t-100 -15.5t-84 55.5l-344 538h-68zM356 1249v-379h203q78 0 133.5 56.5 t55.5 134.5t-55.5 133t-133.5 55h-203z" glyph-name="R" horiz-adv-x="1044" unicode="R"/><glyph d="M801 156q-127 -147 -323.5 -164t-360.5 92q-43 31 -53.5 86t20.5 98t85 54.5t99 -19.5q70 -53 172.5 -49t163.5 76q78 102 31 202.5t-197 137.5t-255 155.5t-100 256.5t74.5 237.5t172 151t227.5 52.5t234 -61q47 -27 60 -81t-15 -101t-82 -60.5t-99 13.5 q-92 53 -195.5 6t-109.5 -145q-4 -74 42 -112t138 -62q162 -43 267.5 -157t117.5 -267q15 -203 -114 -340z" glyph-name="S" horiz-adv-x="978" unicode="S"/><glyph d="M854 1516q55 0 94 -40t39 -94t-39 -93.5t-94 -39.5h-207v-1116q0 -55 -39 -94t-94 -39t-94 39t-39 94v1116h-205q-55 0 -94 39t-39 93t39 94.5t94 40.5h678z" glyph-name="T" horiz-adv-x="1017" unicode="T"/><glyph d="M574 -12q-204 0 -348 144t-144 349v901q0 55 39 94.5t93 39.5t93 -39t39 -95v-901q0 -94 66.5 -161.5t161 -67.5t162 66.5t67.5 162.5v901q0 55 38 94.5t93 39.5t94 -39t39 -95v-901q0 -205 -144.5 -349t-348.5 -144z" glyph-name="U" horiz-adv-x="1138" unicode="U"/><glyph d="M682 0q-92 0 -123 84l-498 1253q-20 51 1.5 101.5t73.5 70.5t102.5 -2t70.5 -73l373 -942l375 942q20 51 70.5 73.5t101.5 2t73.5 -70.5t2.5 -102l-498 -1253q-33 -84 -125 -84z" glyph-name="V" horiz-adv-x="1355" unicode="V"/><glyph d="M1233 -2q-70 0 -100.5 44t-53.5 134l-200 770l-201 -770q-23 -88 -53.5 -133t-100.5 -45q-94 0 -129 119l-350 1231q-14 53 12.5 101t78.5 62t101.5 -12t63.5 -80l242 -860l225 854q10 37 41 60.5t70 23.5t68.5 -23.5t39.5 -60.5l227 -854l242 860q14 53 62.5 80.5 t101.5 12.5t78.5 -63t11.5 -101l-346 -1231q-35 -119 -131 -119z" glyph-name="W" horiz-adv-x="1746" unicode="W"/><glyph d="M1169 207q33 -45 23 -99t-58 -86t-99.5 -22t-84.5 55l-327 471l-330 -471q-31 -45 -85 -54t-99.5 21.5t-54.5 85t22 99.5l385 551l-385 551q-33 47 -23 99t55.5 85t99.5 23.5t85 -54.5l330 -471l327 471q31 45 85.5 54.5t100.5 -22.5t55 -86t-22 -99l-385 -551z" glyph-name="X" horiz-adv-x="1232" unicode="X"/><glyph d="M715 133q0 -55 -39 -94t-93 -39t-93 39t-39 94v637l-377 539q-31 45 -22 99t54.5 85t99.5 21.5t85 -54.5l293 -418l290 418q33 45 86.5 54.5t98.5 -21.5t55 -85t-22 -99l-377 -539v-637z" glyph-name="Y" horiz-adv-x="1157" unicode="Y"/><glyph d="M1057 264q55 0 94 -39t39 -93t-39 -93t-94 -39h-869q-80 0 -117.5 71.5t7.5 137.5l743 1063h-649q-51 0 -86 34.5t-35 86t35 87.5t86 36h881q90 0 127 -72t-11 -137l-729 -1043h617z" glyph-name="Z" horiz-adv-x="1234" unicode="Z"/><glyph d="M403 -225h-198q-47 0 -80 32.5t-33 79.5v1516q0 47 34 80t79 33h198q47 0 80 -33t33 -80t-32.5 -80t-80.5 -33h-86v-1290h86q47 0 80 -33t33 -80t-33 -79.5t-80 -32.5z" glyph-name="bracketleft" horiz-adv-x="577" unicode="["/><glyph d="M746.5 60q-17.5 -38 -57.5 -53t-79 2.5t-53 56.5l-510 1316q-14 41 3.5 79t56 52.5t77.5 -2t56 -55.5l508 -1319q16 -39 -1.5 -77z" glyph-name="backslash" horiz-adv-x="786" unicode="\"/><glyph d="M371 -225h-197q-47 0 -80 32.5t-33 79.5t33 80t80 33h84v1290h-84q-47 0 -80 33t-33 80t33 80t80 33h197q47 0 79.5 -33t32.5 -80v-1516q0 -47 -32.5 -79.5t-79.5 -32.5z" glyph-name="bracketright" horiz-adv-x="575" unicode="]"/><glyph d="M536 1335q64 0 97 -57l364 -664q20 -39 8 -82.5t-54 -65.5t-82 -9.5t-62 53.5l-270 489l-271 -489q-23 -39 -66.5 -51.5t-82.5 8t-51.5 64.5t10.5 83l364 664q32 57 96 57z" glyph-name="asciicircum" horiz-adv-x="1071" unicode="^"/><glyph d="M1004 -193h-877q-41 0 -68.5 29t-27.5 69t27.5 67.5t68.5 27.5h877q41 0 68.5 -27.5t27.5 -67.5t-27.5 -69t-68.5 -29z" glyph-name="underscore" horiz-adv-x="1130" unicode="_"/><glyph d="M213 1616l-219 117q-39 20 -51.5 60t7.5 78t60.5 50t79.5 -8l219 -117q37 -20 49.5 -60t-8 -79t-63.5 -50t-74 9z" glyph-name="grave" horiz-adv-x="423" unicode="`"/><glyph d="M981 1024q53 0 90 -36t37 -87v-778q0 -51 -37 -87t-90 -36q-78 0 -113 72q-127 -86 -286 -86q-217 0 -369 153.5t-152 369.5t153 369.5t368 153.5q156 0 284 -84q31 76 115 76zM585.5 250q106.5 0 183.5 75t77 183t-77 184t-183.5 76t-183 -76t-76.5 -184t76.5 -183 t183 -75z" glyph-name="a" horiz-adv-x="1189" unicode="a"/><glyph d="M604 1034q217 0 369.5 -153.5t152.5 -371.5t-152.5 -370.5t-369.5 -152.5q-160 0 -287 86q-35 -72 -112 -72q-51 0 -87 36t-36 87v1100q0 55 37 90t91 35t94 -39t40 -92v-252q127 69 260 69zM604.5 250q108.5 0 184 75.5t75.5 183.5t-76.5 184.5t-183 76.5t-183.5 -77 t-77 -184t76 -183t184.5 -76z" glyph-name="b" horiz-adv-x="1157" unicode="b"/><glyph d="M586 -16q-217 0 -371 153.5t-154 370.5t154 370.5t371 153.5q180 0 319 -108q43 -35 50.5 -88.5t-25.5 -97.5t-88.5 -51t-98.5 26q-67 55 -165 55t-175 -77t-77 -183.5t76 -183t174 -76.5t154 44t110.5 37t87.5 -53q35 -43 27.5 -97t-52.5 -87q-139 -108 -317 -108z" glyph-name="c" horiz-adv-x="1007" unicode="c"/><glyph d="M31 508q0 217 152.5 370.5t369.5 153.5q133 0 260 -69v251q0 53 39 92.5t92 39.5t92 -38t39 -87v-1098q0 -51 -35.5 -87t-87.5 -36q-78 0 -112 72q-127 -86 -287 -86q-217 0 -369.5 152.5t-152.5 369.5zM293 507.5q0 -106.5 75.5 -182t184.5 -75.5t184.5 75.5t75.5 182 t-77 183.5t-183.5 77t-183 -77t-76.5 -183.5z" glyph-name="d" horiz-adv-x="1157" unicode="d"/><glyph d="M879 434h-566q27 -94 115 -151.5t190.5 -54.5t200.5 57q41 31 89 20.5t77 -52.5t19.5 -91t-48.5 -76q-223 -147 -481 -83.5t-364 290.5q-66 125 -50.5 256t79 238.5t181 176t253.5 68.5t251 -64.5t189 -179.5q115 -188 53 -296q-20 -29 -55 -42.5t-56.5 -14.5t-76.5 -1z M577 809q-95 0 -168.5 -52t-91.5 -134h517q-16 82 -89 134t-168 52z" glyph-name="e" horiz-adv-x="1138" unicode="e"/><glyph d="M512 844q45 0 79 -33t34 -80t-34 -80t-79 -33h-197v-487q0 -53 -38.5 -92t-92.5 -39t-93.5 39t-39.5 92v823q0 164 117 280t281 116h47q53 0 92 -39t39 -93t-39 -93.5t-92 -39.5h-47q-55 0 -94.5 -38.5t-39.5 -92.5v-110h197z" glyph-name="f" horiz-adv-x="667" unicode="f"/><glyph d="M1006 1026q53 0 91 -38t38 -91v-821q0 -133 -64.5 -247t-167 -175.5t-229.5 -77.5t-254 45q-47 23 -65.5 72t4 98t72.5 66.5t97 -4.5q117 -51 222.5 7t123.5 179q-127 -78 -276 -78q-223 0 -380 156.5t-157 378.5t157 380t380 158q156 0 289 -86q35 78 119 78zM598 236 q109 0 185.5 76.5t76.5 185t-76.5 185.5t-185.5 77t-185.5 -77t-76.5 -185.5t76.5 -185t185.5 -76.5z" glyph-name="g" horiz-adv-x="1216" unicode="g"/><glyph d="M530 1038q186 0 317.5 -132t131.5 -318v-455q0 -55 -39 -94t-94 -39t-94 39t-39 94v455q0 76 -53.5 129t-129 53t-129 -53t-53.5 -129v-455q0 -55 -39 -94t-94 -39t-94 39t-39 94v1098q0 55 39 94t94 39t94 -39t39 -94v-232q90 39 182 39z" glyph-name="h" horiz-adv-x="1009" unicode="h"/><glyph d="M332 1246q0 -48 -35 -83t-82 -35t-82 35t-35 83t35 82t82 34t82 -34t35 -82zM216 0q-56 0 -95 39t-39 94v770q0 55 39 94t95 39t95 -39t39 -94v-770q0 -55 -39 -94t-95 -39z" glyph-name="i" horiz-adv-x="421" unicode="i"/><glyph d="M487 1244q0 -48 -33.5 -82t-81.5 -34t-84 34t-36 82t36 83t84 35t81.5 -35t33.5 -83zM238 76v825q0 57 40 96t96 39t93 -39t37 -96v-825q0 -135 -66.5 -255t-181.5 -190q-51 -31 -103.5 -17.5t-82.5 60.5t-16 101.5t61 83.5q123 76 123 217z" glyph-name="j" horiz-adv-x="585" unicode="j"/><glyph d="M346 135q0 -55 -40 -95t-94 -40t-92 39t-38 96v1094q0 55 38 93t92 38t94 -39t40 -92v-557l262 315q35 39 90.5 44t100.5 -27q39 -35 44 -90.5t-28 -96.5l-256 -305l266 -287q37 -43 34 -96t-40 -93t-94 -39t-96 44l-283 307v-213z" glyph-name="k" horiz-adv-x="890" unicode="k"/><glyph d="M216 0q-54 0 -94 39t-40 94v1096q0 55 40 94t94 39t94 -39t40 -94v-1096q0 -55 -40 -94t-94 -39z" glyph-name="l" horiz-adv-x="411" unicode="l"/><glyph d="M1157 1034q182 0 313.5 -131t131.5 -315v-457q0 -53 -39 -92t-93 -39t-93.5 39t-39.5 92v457q0 76 -53 129t-129 53t-128 -53t-52 -129v-457q0 -53 -39 -92t-94.5 -39t-93 39t-37.5 92v457q0 76 -53.5 129t-129 53t-129 -53t-53.5 -129v-457q0 -53 -39 -92t-93 -39 t-93 39t-39 92v768q0 51 37 88t92 37t94 -49q106 59 223 59q184 0 314 -129q133 129 315 129z" glyph-name="m" unicode="m"/><glyph d="M528 1034q184 0 314.5 -131t130.5 -315v-457q0 -53 -38 -92t-93.5 -39t-93 39t-37.5 92v457q0 76 -53.5 129t-129 53t-129 -53t-53.5 -129v-457q0 -53 -39 -92t-93 -39t-93 39t-39 92v768q0 51 37 88t92 37t94 -49q106 59 223 59z" glyph-name="n" horiz-adv-x="1034" unicode="n"/><glyph d="M586 1032q217 0 370.5 -153.5t153.5 -370.5t-153.5 -370.5t-370.5 -153.5t-371 153.5t-154 370.5t154 370.5t371 153.5zM585.5 768q-106.5 0 -183 -77t-76.5 -183.5t76.5 -183t183 -76.5t183.5 76.5t77 183t-77 183.5t-183.5 77z" glyph-name="o" horiz-adv-x="1171" unicode="o"/><glyph d="M1126 515q0 -218 -152.5 -371.5t-369.5 -153.5q-133 0 -260 69v-252q0 -53 -39 -92t-94 -39t-92 37t-37 88v1100q0 51 36 87t87 36q78 0 112 -72q127 86 287 86q217 0 369.5 -152.5t152.5 -370.5zM864 514q0 108 -75.5 184t-184 76t-184.5 -75.5t-76 -183.5t77 -184.5 t183.5 -76.5t183 76t76.5 184z" glyph-name="p" horiz-adv-x="1157" unicode="p"/><glyph d="M553 -8q-217 0 -369.5 153.5t-152.5 370.5t152.5 369.5t369.5 152.5q160 0 287 -86q35 72 112 72q51 0 87 -36t36 -87v-1098q0 -55 -37 -90t-93 -35t-94 39t-38 93v251q-127 -69 -260 -69zM553 774q-109 0 -184.5 -75.5t-75.5 -182t76.5 -183.5t183 -77t183.5 77 t77 183.5t-75.5 182t-184.5 75.5z" glyph-name="q" horiz-adv-x="1157" unicode="q"/><glyph d="M346 612v-479q0 -55 -39 -94t-93 -39t-93 39t-39 94v766q0 51 37 88t90 37t90 -43q148 88 326 35q51 -14 77.5 -62.5t10 -101.5t-64.5 -78.5t-114 -7.5t-127 -29t-61 -125z" glyph-name="r" horiz-adv-x="749" unicode="r"/><glyph d="M386 797q-7 0 -45.5 -7.5t-40 -48.5t26.5 -59q29 -18 105 -34t145.5 -80t94.5 -158t-7 -190t-104 -154t-171 -75.5t-195 8.5q-95 26 -129 67t-35.5 87t20.5 76q53 86 207 37q35 -16 86 -10t66 45q31 82 -119 123q-88 25 -160 96.5t-84 163.5q-25 166 123.5 274.5 t333.5 59.5q68 -18 104 -55q61 -57 21 -134q-25 -43 -73 -49t-70 0t-38 9.5t-22 4.5t-19.5 2t-20.5 1z" glyph-name="s" horiz-adv-x="763" unicode="s"/><glyph d="M526 264q55 0 94 -39t39 -93t-38.5 -93t-94.5 -39h-47q-164 0 -280.5 116.5t-116.5 280.5v820q0 55 39 94t93 39t93 -39t39 -94v-193h197q47 0 79.5 -33t32.5 -80t-32.5 -79.5t-79.5 -32.5h-197v-402q0 -55 39 -94t94 -39h47z" glyph-name="t" horiz-adv-x="690" unicode="t"/><glyph d="M528.5 -16q-184.5 0 -315.5 131t-131 315v461q0 55 39 94t93 39t93 -39t39 -94v-461q0 -76 53.5 -129t129 -53t129 53t53.5 129v461q0 55 38.5 94t92.5 39t93.5 -39t39.5 -94v-461q0 -184 -131 -315t-315.5 -131z" glyph-name="u" horiz-adv-x="1036" unicode="u"/><glyph d="M496 0q-88 0 -123 82l-312 762q-20 51 0.5 99.5t72.5 70.5t101.5 1.5t69.5 -71.5l191 -463l190 463q20 51 69.5 71.5t101.5 -1.5t72.5 -70.5t0.5 -99.5l-312 -762q-34 -82 -122 -82z" glyph-name="v" horiz-adv-x="980" unicode="v"/><glyph d="M1145 0q-86 0 -123 82l-209 502l-207 -502q-33 -82 -122 -82t-122 82l-311 762q-20 51 0.5 101.5t70.5 70.5t100 -1.5t71 -70.5l213 -520l205 489q31 70 103 70t104 -70l202 -489l213 520q23 49 72 70.5t100 1t71.5 -70.5t0.5 -101l-313 -762q-33 -82 -119 -82z" glyph-name="w" horiz-adv-x="1617" unicode="w"/><glyph d="M928 213q35 -41 29.5 -96.5t-48.5 -89.5q-39 -35 -94 -30t-90 46l-221 262l-219 -262q-35 -41 -90.5 -46t-96.5 29.5t-46 90t30 96.5l250 301l-250 297q-35 43 -30 98t47 89t96.5 30t89.5 -47l219 -262l219 262q35 43 90 47t97 -31t46.5 -89t-30.5 -97l-250 -297z" glyph-name="x" horiz-adv-x="999" unicode="x"/><glyph d="M162 -389q-55 0 -93 40t-38 95t39.5 92t109.5 37t136.5 44t97.5 120l28 61l-305 746q-23 49 0 100t74 72q49 23 99 0t71 -74l205 -498l202 498q20 51 72 74t101 0q51 -20 73.5 -71.5t-0.5 -100.5l-375 -914q-59 -147 -194 -234t-303 -87z" glyph-name="y" horiz-adv-x="1105" unicode="y"/><glyph d="M815 264q55 0 94 -39t39 -93t-39 -93t-94 -39h-631q-84 0 -120.5 77t18.5 144l467 559h-375q-51 0 -87 35t-36 86t36 87t87 36h643q82 0 119 -76t-18 -141l-453 -543h350z" glyph-name="z" horiz-adv-x="989" unicode="z"/><glyph d="M731 0q47 0 79 -33t32 -80t-32 -79.5t-79 -32.5h-20q-150 0 -256.5 106.5t-106.5 257.5v252q0 57 -42 98t-97 41h-33q-49 0 -82 34t-33 82t33 81t82 33h33q55 0 97 41t42 98v252q0 152 106.5 258.5t256.5 106.5h20q47 0 79 -33t32 -79t-33 -80t-78 -34h-20 q-59 0 -99.5 -41t-40.5 -98v-252q0 -145 -102 -254q102 -109 102 -254v-252q0 -57 40 -98t100 -41h20z" glyph-name="braceleft" horiz-adv-x="882" unicode="{"/><glyph d="M195 -389q-43 0 -73 29.5t-30 72.5v1700q0 43 30 73t73 30t72.5 -30t29.5 -73v-1700q0 -43 -29.5 -72.5t-72.5 -29.5z" glyph-name="bar" horiz-adv-x="389" unicode="|"/><glyph d="M821 645q0 -47 -32.5 -78.5t-79.5 -31.5h-33q-57 0 -98 -42t-41 -100v-252q0 -150 -106.5 -257t-258.5 -107h-18q-47 0 -80 32.5t-33 78.5t32.5 79t80.5 33h18q57 0 98 41t41 100v252q0 150 103 252q-102 106 -103 252v254q0 57 -41 98t-98 41h-18q-47 0 -80 33t-33 80 t32.5 80t80.5 33h18q152 0 258.5 -106.5t106.5 -258.5v-254q0 -57 40.5 -98t98.5 -41h33q47 0 79.5 -33t32.5 -80z" glyph-name="braceright" horiz-adv-x="882" unicode="}"/><glyph d="M328 289q-18 -33 -57.5 -52.5t-89.5 -7.5t-77.5 54.5t-18.5 120.5t77.5 175t181.5 148q270 121 592 -94q203 -149 300 -88t130 172q18 59 65.5 90t100.5 15t79.5 -63.5t16.5 -101.5q-25 -111 -103.5 -211t-201.5 -145q-219 -96 -539 105q-199 137 -315 79 q-42 -18 -68 -63t-46.5 -85t-26.5 -48z" glyph-name="asciitilde" horiz-adv-x="1701" unicode="~"/><glyph d="M82 1394q0 50 35 86t86 36t87 -36t36 -86t-36 -86t-87 -36t-86 36t-35 86zM204 0q-54 0 -93 39t-39 94v922q0 55 39 94t93 39t93 -39t39 -94v-922q0 -55 -39 -94t-93 -39z" glyph-name="exclamdown" horiz-adv-x="407" unicode="¡"/><glyph d="M698 -115q0 -51 -37 -87t-87 -36t-85.5 35t-35.5 88v121q-170 43 -281 184.5t-111 321.5t111 321.5t281 184.5v104q0 49 35.5 86t85.5 37t87 -37t37 -86v-96q117 -27 207 -98q43 -35 50.5 -88.5t-24.5 -98.5t-89.5 -52t-93.5 19t-50 35v-462q16 8 43 24q43 33 99.5 26 t89.5 -50t25.5 -96.5t-50.5 -88.5q-88 -72 -207 -98v-113zM328 514q0 -148 125 -225v442q-125 -69 -125 -217z" glyph-name="cent" horiz-adv-x="1007" unicode="¢"/><glyph d="M1046 541q50 0 86.5 -36t36.5 -87v-33q0 -164 -117.5 -274.5t-287.5 -110.5h-553q-49 0 -86 36t-37 87t37 87t86 36h168v266q0 61 -33 115h-172q-43 0 -72.5 29.5t-29.5 71.5t29.5 71.5t72.5 29.5h21q-66 90 -85.5 190.5t9 188.5t86 161t147.5 115t212 42t239 -57.5 t182 -172.5q25 -43 13.5 -93t-55.5 -75t-92 -15.5t-75 52.5q-63 106 -199.5 114.5t-197.5 -97.5q-55 -108 0 -189t87 -117t40 -47h315q43 0 73 -29.5t30 -71.5t-30 -71.5t-73 -29.5h-213q16 -49 17 -111v-270h139q74 0 117 42t43 97v33q0 53 36 88t86 35z" glyph-name="sterling" horiz-adv-x="1220" unicode="£"/><glyph d="M965 1016q51 0 86.5 -37t35.5 -88t-35.5 -86t-86.5 -35h-248v-104h248q51 0 86.5 -37t35.5 -87t-35.5 -86t-86.5 -36h-248v-285q0 -55 -38 -95t-93.5 -40t-95 40t-39.5 95v285h-248q-49 0 -86 36t-37 86t37 87t86 37h248v104h-248q-51 0 -87 35t-36 86t36 88t87 37h78 l-205 293q-31 45 -22 99t54.5 85t99.5 21.5t85 -54.5l293 -416l288 416q33 45 88.5 54.5t99.5 -20.5t54 -84t-20 -101l-209 -293h78z" glyph-name="yen" horiz-adv-x="1159" unicode="¥"/><glyph d="M408 1139q0 -63 37.5 -93t115.5 -55q332 -106 352 -389q17 -209 -149 -346q84 -115 77 -259t-104 -253q-113 -135 -298 -150.5t-322 82.5q-43 31 -53.5 81t19.5 93t80 52.5t93 -17.5q68 -47 155 -44t138 67q57 59 40.5 140t-91.5 118q-27 14 -232 87.5t-184.5 305.5 t164.5 334q-90 109 -89 237t64.5 221t157.5 138t208.5 44t209.5 -58q45 -27 57 -77t-14.5 -95.5t-76.5 -57.5t-95 15q-78 47 -169 7t-91 -128zM371 492q24 -24 83.5 -44t98.5 -34q51 23 83 70.5t28 99.5q-4 94 -91.5 130t-162.5 -14q-63 -37 -73.5 -99t34.5 -109z" glyph-name="section" horiz-adv-x="966" unicode="§"/><glyph d="M295 1717q0 -48 -35 -83t-83 -35t-82 35t-34 83t34 82t82 34t83 -34t35 -82zM606 1717q0 -48 -34 -83t-82 -35t-82.5 35t-34.5 83t34.5 82t82.5 34t82 -34t34 -82z" glyph-name="dieresis" horiz-adv-x="667" unicode="¨"/><glyph d="M831.5 1530q319.5 0 545 -226.5t225.5 -544.5t-225.5 -544.5t-545 -226.5t-545 226t-225.5 544t225.5 545t545 227zM830 1321q-234 0 -398 -164t-164 -399.5t166 -399t397.5 -163.5t397.5 165.5t166 397.5t-165.5 397.5t-399.5 165.5zM824 356q-156 0 -276 121t-120 290 t120 290t274 121t265 -86q33 -27 39.5 -70t-20.5 -77t-69 -39t-76 22q-98 76 -212 19.5t-114 -181.5t114.5 -181.5t211.5 21.5q35 27 76.5 21t68.5 -40t20.5 -77t-39.5 -70q-107 -84 -263 -84z" glyph-name="copyright" unicode="©"/><glyph d="M449 125q-46 0 -76 33l-279 278q-33 37 -32 80t32 76l279 278q33 35 78 35t77.5 -34.5t32.5 -77.5t-33 -78l-202 -201l202 -201q33 -33 33 -76.5t-33 -77.5t-79 -34zM854 125q-43 0 -76 33l-278 278q-33 37 -32 80t32 76l278 278q31 35 77 35t77 -35t31 -77.5t-33 -77.5 l-199 -201l199 -201q33 -33 33 -76.5t-33 -77.5t-76 -34z" glyph-name="guillemotleft" horiz-adv-x="1013" unicode="«"/><glyph d="M1367 25q-54 0 -92 37.5t-38 93.5v331h-1063q-55 0 -94 38t-39 93.5t39 93.5t94 38h1192q55 0 93 -38t38 -94v-462q0 -55 -38 -93t-92 -38z" glyph-name="logicalnot" horiz-adv-x="1579" unicode="¬"/><glyph d="M831.5 1530q319.5 0 545 -226.5t225.5 -544.5t-225.5 -544.5t-545 -226.5t-545 226t-225.5 544t225.5 545t545 227zM830 1321q-234 0 -398 -164t-164 -399.5t166 -399t397.5 -163.5t397.5 165.5t166 397.5t-165.5 397.5t-399.5 165.5zM748 653v-262q0 -39 -28 -65.5 t-67 -26.5t-65.5 26.5t-26.5 65.5v735q0 39 26.5 66t65.5 27h197q117 0 200 -83t83 -200q0 -82 -43 -148.5t-113 -103.5l143 -242q18 -33 8 -70.5t-43 -57.5t-69.5 -10.5t-57.5 42.5l-180 307h-30zM748 1032v-192h102q39 0 67.5 28.5t28.5 67.5t-28.5 67.5t-67.5 28.5h-102z " glyph-name="registered" unicode="®"/><glyph d="M498 1647h-334q-41 0 -72 29.5t-31 71.5t31 71.5t72 29.5h334q43 0 72.5 -29.5t29.5 -71.5t-29.5 -71.5t-72.5 -29.5z" glyph-name="macron" horiz-adv-x="661" unicode="¯"/><glyph d="M354 1516q121 0 207 -86.5t86 -207t-86 -205.5t-207 -85t-207 85t-86 205.5t86 207t207 86.5zM354 1333q-45 0 -76.5 -32.5t-31.5 -77.5t31.5 -77t76.5 -32t77 32t32 77t-32 77.5t-77 32.5z" glyph-name="degree" horiz-adv-x="708" unicode="°"/><glyph d="M989 897q49 0 81 -30.5t32 -76.5t-32 -79t-81 -33h-305v-225q0 -45 -30.5 -77t-76.5 -32t-79 32t-33 77v225h-301q-47 0 -80 33t-33 79t33 76.5t80 30.5h301v205q0 45 32.5 76.5t78.5 31.5t77 -31.5t31 -76.5v-205h305zM989 0h-825q-47 0 -80 31t-33 79t33 79.5t80 31.5 h825q49 0 81 -31.5t32 -78.5t-32 -79t-81 -32z" glyph-name="plusminus" horiz-adv-x="1142" unicode="±"/><glyph d="M567 786q39 0 65.5 -27.5t26.5 -66.5t-26.5 -66.5t-65.5 -27.5h-387q-59 0 -88 53.5t10 98.5l330 399q29 37 25 84t-44 79t-85 24.5t-71 -39.5t-63.5 -34.5t-66.5 20t-33 60t21 66.5q78 94 198.5 105.5t216.5 -64.5q94 -78 105.5 -199t-66.5 -217l-202 -248h200z" glyph-name="uni00B2" horiz-adv-x="720" unicode="²"/><glyph d="M629 900q0 -128 -87.5 -216t-197.5 -88t-198.5 64.5t-94.5 136.5q-4 45 30 73.5t79 23.5t67 -48q33 -58 97 -58t95.5 45.5t13.5 105.5t-88 69.5t-99 43.5t-12.5 82t59.5 58q8 2 49 10t50 44t-10.5 63.5t-51.5 27.5t-63 -27.5t-64 -27.5q-61 0 -87 55.5t15 102.5 q78 86 186.5 88t187.5 -72t79 -188q0 -80 -49 -152q94 -88 94 -216z" glyph-name="uni00B3" horiz-adv-x="710" unicode="³"/><glyph d="M213 1616q-41 -20 -80 -8t-59 50t-8 78t51 60l217 117q39 20 79 8t60 -50t8 -78t-49 -60z" glyph-name="acute" horiz-adv-x="423" unicode="´"/><glyph d="M870 1516q43 0 73 -31t30 -72v-1556q0 -43 -31 -73t-73 -30t-72.5 30t-30.5 73v1472h-121v-1472q0 -43 -30.5 -73t-72.5 -30t-73 30t-31 73v753q-168 20 -282.5 149.5t-114.5 308.5t130 313.5t314 134.5h385z" glyph-name="paragraph" horiz-adv-x="1064" unicode="¶"/><glyph d="M377 82v-141q70 -25 112.5 -85.5t42.5 -146.5t-69.5 -155.5t-160.5 -69.5t-156.5 53t-82.5 135q-6 33 12.5 61.5t51.5 36.5t61.5 -11t34.5 -49q12 -62 72 -62q31 0 52.5 21t21.5 51t-21.5 51.5t-54.5 21.5t-56.5 23.5t-23.5 58.5v207h164z" glyph-name="cedilla" horiz-adv-x="593" unicode="¸"/><glyph d="M279 1516q39 0 64.5 -28t25.5 -67v-721q0 -41 -27 -67.5t-68 -26.5t-68.5 28t-27.5 66v652h-63q-35 0 -59.5 23.5t-24.5 58t24.5 58.5t59.5 24h164z" glyph-name="uni00B9" horiz-adv-x="460" unicode="¹"/><glyph d="M159 904.5q46 0.5 77 -34.5l278 -278q31 -33 32 -76t-32 -80l-278 -278q-33 -33 -76 -33t-76 34t-33 76.5t33 77.5l199 201l-199 201q-33 35 -32 78t31 77t76 34.5zM564 904.5q44 0.5 77 -34.5l279 -278q31 -33 31.5 -76t-31.5 -80l-279 -278q-31 -33 -77 -34t-78.5 34 t-33 77.5t32.5 77.5l203 201l-203 201q-33 35 -33 78t34 77t78 34.5z" glyph-name="guillemotright" horiz-adv-x="1013" unicode="»"/><glyph d="M436 49q-20 -33 -59 -44t-82 9q-35 23 -45 64t12 78l813 1314q23 37 64 46.5t77 -13.5t46 -63.5t-13 -75.5zM340 1516q39 0 64.5 -28t25.5 -67v-721q0 -39 -27.5 -66.5t-67.5 -27.5t-66.5 26.5t-26.5 67.5v650h-68q-33 0 -57.5 24.5t-24.5 58.5t23.5 58.5t58.5 24.5h166z M1432 254q0 -37 -28 -62.5t-67 -25.5v-72q0 -39 -27.5 -66.5t-66.5 -27.5t-66.5 27.5t-27.5 66.5v72h-301q-57 0 -81 49t5 88l393 578q41 57 106.5 33.5t65.5 -89.5v-483q39 0 67 -25.5t28 -62.5zM1149 342v199l-135 -199h135z" glyph-name="onequarter" horiz-adv-x="1523" unicode="¼"/><glyph d="M436 49q-20 -35 -61 -46t-78 13t-47 64.5t12 75.5l813 1314q23 37 65 47.5t76.5 -12t45 -64.5t-12.5 -77zM340 1516q39 0 64.5 -28t25.5 -67v-721q0 -41 -26.5 -67.5t-67.5 -26.5t-68.5 28t-27.5 66v652h-64q-35 0 -59.5 23.5t-24.5 58t24.5 58.5t59.5 24h164zM1491 188 q39 0 65.5 -27.5t26.5 -66.5t-26.5 -66.5t-65.5 -27.5h-387q-59 0 -88 53t10 99l330 399q29 37 24.5 84t-44.5 79t-85 24.5t-71 -39.5t-63.5 -34.5t-66 20t-32.5 60t20 66.5q78 94 199 105.5t217 -64.5q94 -78 105.5 -199t-66.5 -217l-203 -248h201z" glyph-name="onehalf" horiz-adv-x="1685" unicode="½"/><glyph d="M631 900q0 -128 -87.5 -216t-197.5 -88t-198.5 64.5t-94.5 136.5q-4 45 30 73.5t79 23.5t67 -48q33 -58 97 -58t95.5 45.5t13.5 105.5t-88 69.5t-99 43.5t-12.5 82t59.5 58q8 2 49 10t50 44t-10 63.5t-51 27.5t-63.5 -27.5t-64.5 -27.5q-61 0 -87 55.5t15 102.5 q78 86 186.5 88t187.5 -72t79 -188q0 -80 -49 -152q94 -88 94 -216zM522 51q-20 -35 -58 -45t-81 10q-35 23 -45 65t12 77l811 1312q23 37 65 46.5t76.5 -13t45 -63.5t-12.5 -76zM1518 256q0 -37 -28 -63.5t-67 -26.5v-70q0 -39 -27.5 -66.5t-66.5 -27.5t-66.5 27.5 t-27.5 66.5v70h-301q-51 0 -78 47t4 92l393 576q37 55 103.5 34.5t66.5 -90.5v-481q39 0 67 -25.5t28 -62.5zM1235 344v197l-135 -197h135z" glyph-name="threequarters" horiz-adv-x="1681" unicode="¾"/><glyph d="M375 1396q0 50 34.5 85t86 35t86 -35t34.5 -85t-34.5 -86t-86 -36t-86 36t-34.5 86zM61 442q0 147 87.5 264t224.5 158v191q0 55 39 94t93 39t92 -39t38 -94v-262q0 -170 -131 -170q-74 0 -126 -53.5t-52 -127t52 -126t116 -52.5q125 0 176 109q20 51 70.5 71.5 t101.5 -2.5q51 -20 71.5 -70t-2.5 -102q-53 -123 -163.5 -196.5t-243.5 -73.5q-182 0 -312.5 130t-130.5 312z" glyph-name="questiondown" horiz-adv-x="962" unicode="¿"/><glyph d="M727 1616l-219 117q-39 20 -51.5 60t7.5 78t60.5 50t79.5 -8l219 -117q37 -20 49.5 -60t-8 -79t-63.5 -50t-74 9zM746 1518q90 0 128 -78l551 -1256q20 -53 0 -103t-69 -72.5t-103.5 -3t-74.5 68.5l-86 198h-691l-86 -198q-20 -51 -71.5 -69.5t-103.5 2.5t-71.5 73.5 t3.5 103.5l551 1256q33 78 123 78zM516 539h461l-232 522z" glyph-name="Agrave" horiz-adv-x="1505" unicode="À"/><glyph d="M791 1616q-41 -20 -80 -8t-60 49q-20 39 -8 79t51 60l217 117q39 20 79 8t60 -50t8.5 -78t-48.5 -60zM746 1518q90 0 128 -78l551 -1256q20 -53 0 -103t-69 -72.5t-103.5 -3t-74.5 68.5l-86 198h-691l-86 -198q-20 -51 -71.5 -69.5t-103.5 2.5t-71.5 73.5t3.5 103.5 l551 1256q33 78 123 78zM516 539h461l-232 522z" glyph-name="Aacute" horiz-adv-x="1507" unicode="Á"/><glyph d="M747.5 1946q34.5 0 63.5 -23l193 -145q33 -27 39 -70t-20 -77t-68 -39t-76 22l-131 98l-130 -98q-35 -27 -75.5 -22t-67 40t-21.5 76t40 68l192 147q27 23 61.5 23zM746 1518q90 0 128 -78l551 -1256q20 -53 0 -103t-69 -72.5t-103.5 -3t-74.5 68.5l-86 198h-691 l-86 -198q-20 -51 -71.5 -69.5t-103.5 2.5t-71.5 73.5t3.5 103.5l551 1256q33 78 123 78zM516 539h461l-232 522z" glyph-name="Acircumflex" horiz-adv-x="1507" unicode="Â"/><glyph d="M598 1653q-57 -57 -126 -11t-40 123q37 98 146.5 129t207.5 -36q46 -31 64 -22t38.5 30.5t37.5 29.5q68 31 117 -25t14 -120q-59 -106 -152.5 -126.5t-208.5 52.5q-37 25 -51 20t-21.5 -12.5t-14.5 -17.5t-11 -14zM746 1518q90 0 128 -78l551 -1256q20 -53 0 -103 t-69 -72.5t-103.5 -3t-74.5 68.5l-86 198h-691l-86 -198q-20 -51 -71.5 -69.5t-103.5 2.5t-71.5 73.5t3.5 103.5l551 1256q33 78 123 78zM516 539h461l-232 522z" glyph-name="Atilde" horiz-adv-x="1505" unicode="Ã"/><glyph d="M709 1717q0 -48 -35 -83t-83 -35t-82 35t-34 83t34 82t82 34t83 -34t35 -82zM1020 1717q0 -48 -34 -83t-82 -35t-83 35t-35 83t35 82t83 34t82 -34t34 -82zM746 1518q90 0 128 -78l551 -1256q20 -53 0 -103t-69 -72.5t-103.5 -3t-74.5 68.5l-86 198h-691l-86 -198 q-20 -51 -71.5 -69.5t-103.5 2.5t-71.5 73.5t3.5 103.5l551 1256q33 78 123 78zM516 539h461l-232 522z" glyph-name="Adieresis" horiz-adv-x="1505" unicode="Ä"/><glyph d="M747.5 2044q94.5 0 161 -66.5t66.5 -161t-66.5 -162t-161 -67.5t-161 67.5t-66.5 162t66.5 161t161 66.5zM747.5 1901q-34.5 0 -59 -25t-24.5 -59.5t24.5 -59t59 -24.5t59 24.5t24.5 59t-24.5 59.5t-59 25zM746 1518q90 0 128 -78l551 -1256q20 -53 0 -103t-69 -72.5 t-103.5 -3t-74.5 68.5l-86 198h-691l-86 -198q-20 -51 -71.5 -69.5t-103.5 2.5t-71.5 73.5t3.5 103.5l551 1256q33 78 123 78zM516 539h461l-232 522z" glyph-name="Aring" horiz-adv-x="1505" unicode="Å"/><glyph d="M1462 266q55 0 94 -39t39 -94t-38.5 -94t-94.5 -39h-534q-55 0 -94 39t-39 94v141h-383l-84 -192q-23 -51 -73 -71.5t-103 1.5q-51 23 -72 74t2 102l549 1248q33 80 129 80h702q55 0 94 -39t39 -94.5t-38.5 -94.5t-94.5 -39h-401v-379h383q47 0 79.5 -32.5t32.5 -79.5 t-32.5 -80t-79.5 -33h-383v-379h401zM795 541v602l-267 -602h267z" glyph-name="AE" horiz-adv-x="1656" unicode="Æ"/><glyph d="M1014 -291q0 -86 -70 -155.5t-161 -69.5t-156.5 53t-81.5 135q-6 33 12 61.5t51 36.5t61.5 -11t34.5 -49q13 -62 72 -62q31 0 52.5 21t21.5 51t-21.5 51.5t-54.5 21.5t-56.5 23.5t-23.5 58.5v125q-274 45 -458.5 259t-184.5 516t225.5 527.5t542.5 225.5q262 0 469 -160 q43 -35 50.5 -88t-25.5 -97t-88.5 -51.5t-98.5 25.5q-119 92 -264 102.5t-265 -48t-201 -180.5t-81 -259t52.5 -240.5t140.5 -167t192.5 -93t217 -7.5t206.5 94q45 33 98.5 26t88.5 -50t27.5 -98.5t-52.5 -88.5q-188 -145 -428 -157v-49q70 -25 113 -85.5t43 -146.5z" glyph-name="Ccedilla" horiz-adv-x="1411" unicode="Ç"/><glyph d="M461 1614l-219 115q-37 20 -49.5 61t8 78t60.5 50t77 -7l219 -117q37 -20 49 -60t-8 -79t-62 -50t-75 9zM762 266q55 0 94 -39t39 -94t-39 -94t-94 -39h-537q-55 0 -94 39t-39 94v1249q0 55 39 94.5t94 39.5h537q55 0 94 -39t39 -94.5t-39 -94.5t-94 -39h-404v-377h385 q47 0 80 -33.5t33 -80.5t-32.5 -80t-80.5 -33h-385v-379h404z" glyph-name="Egrave" horiz-adv-x="966" unicode="È"/><glyph d="M432 1614q-31 -20 -74 -9t-63.5 50t-8 79t49.5 60l219 117q37 20 77 7t60.5 -50t8 -78t-49.5 -61zM762 266q55 0 94 -39t39 -94t-39 -94t-94 -39h-537q-55 0 -94 39t-39 94v1249q0 55 39 94.5t94 39.5h537q55 0 94 -39t39 -94.5t-39 -94.5t-94 -39h-404v-377h385 q47 0 80 -33.5t33 -80.5t-32.5 -80t-80.5 -33h-385v-379h404z" glyph-name="Eacute" horiz-adv-x="966" unicode="É"/><glyph d="M788 1708q5 -41 -22 -75t-69 -40t-74 19l-129 98l-129 -98q-35 -27 -76 -22t-68 39t-20.5 77t39.5 70l190 145q29 20 63.5 20.5t61.5 -20.5l193 -145q35 -27 40 -68zM762 266q55 0 94 -39t39 -94t-39 -94t-94 -39h-537q-55 0 -94 39t-39 94v1249q0 55 39 94.5t94 39.5 h537q55 0 94 -39t39 -94.5t-39 -94.5t-94 -39h-404v-377h385q47 0 80 -33.5t33 -80.5t-32.5 -80t-80.5 -33h-385v-379h404z" glyph-name="Ecircumflex" horiz-adv-x="966" unicode="Ê"/><glyph d="M209 1606l-217 116q-37 18 -49.5 59.5t6.5 78.5q20 37 61 49t78 -6l217 -117q37 -20 50 -60t-7 -78t-59 -50t-80 8zM234 0q-54 0 -93 39t-39 94v1249q0 55 39 94.5t93 39.5t93.5 -39t39.5 -95v-1249q0 -55 -39.5 -94t-93.5 -39z" glyph-name="Igrave" horiz-adv-x="458" unicode="Ì"/><glyph d="M242 1606q-41 -20 -79 -7t-58.5 50t-8 76.5t48.5 60.5l217 117q39 18 79 5.5t60.5 -49t7.5 -77.5t-50 -60zM225.5 0q-55.5 0 -94.5 39t-39 94v1249q0 55 39 94.5t94.5 39.5t94 -39t38.5 -95v-1249q0 -55 -38.5 -94t-94 -39z" glyph-name="Iacute" horiz-adv-x="452" unicode="Í"/><glyph d="M512.5 1698.5q6.5 -41.5 -18.5 -75.5t-68 -39t-76 20l-129 98l-129 -98q-33 -25 -75 -19t-68.5 39t-20.5 75t39 66l191 148q66 47 125 0l190 -146q33 -27 39.5 -68.5zM221 0q-55 0 -94 39t-39 94v1249q0 55 39 94.5t94 39.5t94 -39t39 -95v-1249q0 -55 -39 -94t-94 -39z " glyph-name="Icircumflex" horiz-adv-x="442" unicode="Î"/><glyph d="M186 1708q0 -47 -33.5 -82t-81.5 -35t-82 35t-34 82t34 82t82 35t81.5 -35t33.5 -82zM498 1708q0 -47 -35 -82t-82 -35t-81 35t-34 82t34 82t81 35t82 -35t35 -82zM226 0q-54 0 -93 39t-39 94v1249q0 55 39 94.5t93 39.5t93 -39t39 -95v-1249q0 -55 -39 -94t-93 -39z" glyph-name="Idieresis" horiz-adv-x="452" unicode="Ï"/><glyph d="M725 1516q313 0 535.5 -222.5t222.5 -536t-222.5 -535.5t-535.5 -222h-336q-51 0 -88 40t-37 93v516h-100q-51 0 -87 36t-36 87t36 87t87 36h100v487q0 55 39 94.5t94 39.5h328zM725 266q203 0 347.5 144.5t144.5 347.5t-144.5 347t-347.5 144h-195v-354h105q51 0 87 -36 t36 -87t-36 -87t-87 -36h-105v-383h195z" glyph-name="Eth" horiz-adv-x="1533" unicode="Ð"/><glyph d="M521 1640q-38 -51 -111.5 -1.5t-44.5 126.5q37 98 146.5 129t207.5 -36q45 -31 63 -22t39 30.5t37 29.5q68 31 117 -25t14 -120q-59 -106 -152.5 -126.5t-207.5 52.5q-37 25 -53 19q-17 -5 -55 -56zM1136 1516q54 0 93 -39t39 -95v-1249q0 -55 -39 -94t-101 -39t-102 57 q-8 14 -339 490t-331 481v-895q0 -55 -39 -94t-93 -39t-93 39t-39 94v1249q0 57 39 95.5t84 38.5t73.5 -19.5t42 -36t67.5 -95.5t606 -878v895q0 55 39 94.5t93 39.5z" glyph-name="Ntilde" horiz-adv-x="1349" unicode="Ñ"/><glyph d="M805 1612l-217 114q-37 20 -49.5 60.5t6.5 79.5q20 37 61 49t78 -8l217 -115q37 -20 50.5 -61t-7 -78t-60.5 -49t-79 8zM830 1528q318 0 545 -225.5t227 -545t-227 -544.5t-545 -225t-543.5 225t-225.5 544.5t225.5 545t543.5 225.5zM829 1262q-211 0 -357 -148.5 t-146 -356.5t147 -355.5t357 -147.5t357.5 147.5t147.5 356.5t-147.5 356.5t-358.5 147.5z" glyph-name="Ograve" unicode="Ò"/><glyph d="M831 1612q-39 -20 -78.5 -8t-60.5 49q-20 39 -7 79t50 60l217 115q37 20 78 8t62 -49q20 -39 6.5 -79t-49.5 -61zM830 1528q318 0 545 -225.5t227 -545t-227 -544.5t-545 -225t-543.5 225t-225.5 544.5t225.5 545t543.5 225.5zM829 1262q-211 0 -357 -148.5t-146 -356.5 t147 -355.5t357 -147.5t357.5 147.5t147.5 356.5t-147.5 356.5t-358.5 147.5z" glyph-name="Oacute" unicode="Ó"/><glyph d="M1123.5 1704q5.5 -41 -20.5 -75t-68 -40t-74 21l-132 98l-127 -98q-35 -27 -75.5 -21t-67.5 39t-21.5 75t40.5 69l190 147q61 45 123 0l192 -147q35 -27 40.5 -68zM830 1528q318 0 545 -225.5t227 -545t-227 -544.5t-545 -225t-543.5 225t-225.5 544.5t225.5 545 t543.5 225.5zM829 1262q-211 0 -357 -148.5t-146 -356.5t147 -355.5t357 -147.5t357.5 147.5t147.5 356.5t-147.5 356.5t-358.5 147.5z" glyph-name="Ocircumflex" unicode="Ô"/><glyph d="M682 1653q-57 -57 -126 -11t-40 123q37 98 146.5 129t207.5 -36q46 -31 64 -22t38.5 30.5t37.5 29.5q68 31 117 -25t14 -120q-59 -106 -152.5 -126.5t-208.5 52.5q-37 25 -51 20t-21.5 -12.5t-14.5 -17.5t-11 -14zM830 1528q318 0 545 -225.5t227 -545t-227 -544.5 t-545 -225t-543.5 225t-225.5 544.5t225.5 545t543.5 225.5zM832 1262q-211 0 -357.5 -148.5t-146.5 -356.5t147.5 -355.5t357.5 -147.5t357 147.5t147 356.5t-147 356.5t-358 147.5z" glyph-name="Otilde" unicode="Õ"/><glyph d="M791 1713q0 -48 -34 -82t-82 -34t-82 34t-34 82t34 82t82 34t82 -34t34 -82zM1102 1713q0 -48 -34 -82t-82 -34t-82 34t-34 82t34 82t82 34t82 -34t34 -82zM830 1528q318 0 545 -225.5t227 -545t-227 -544.5t-545 -225t-543.5 225t-225.5 544.5t225.5 545t543.5 225.5z M829 1262q-211 0 -357 -148.5t-146 -356.5t147 -355.5t357 -147.5t357.5 147.5t147.5 356.5t-147.5 356.5t-358.5 147.5z" glyph-name="Odieresis" unicode="Ö"/><glyph d="M1602 756q0 -319 -226.5 -544.5t-544.5 -225.5q-180 0 -339 80l-21 -31q-16 -29 -49 -36t-64 9q-29 16 -36 50t12 63l18 31q-135 109 -213 266t-78 338q0 319 225.5 544.5t544.5 225.5q174 0 328 -74l19 29q18 29 51 37t61.5 -10.5t36.5 -51.5t-10 -61l-19 -29 q141 -106 222.5 -266t81.5 -344zM831 1260q-164 0 -289.5 -90.5t-179 -220.5t-29 -282.5t139.5 -267.5l21 -20l524 846q-88 35 -187 35zM831 252q164 0 289 91t177.5 221t28 282.5t-137.5 265.5q-20 20 -29 27l-528 -848q92 -39 200 -39z" glyph-name="Oslash" unicode="Ø"/><glyph d="M532 1608l-217 116q-37 20 -49 60.5t8.5 77t60.5 49t77 -7.5l217 -115q37 -20 49 -60t-8.5 -77t-64.5 -49t-73 6zM573.5 -12q-204.5 0 -348 144t-143.5 349v903q0 53 38 92.5t93 39.5t94 -39t39 -93v-903q0 -94 66.5 -161.5t161 -67.5t162 66.5t67.5 162.5v903 q0 53 39 92.5t93 39.5t93 -39t39 -93v-903q0 -205 -144.5 -349t-349 -144z" glyph-name="Ugrave" horiz-adv-x="1138" unicode="Ù"/><glyph d="M598 1608q-29 -18 -73 -6t-64.5 49t-8 76.5t51.5 60.5l215 115q39 20 79 7.5t60.5 -49t7 -76.5t-50.5 -61zM573.5 -12q-204.5 0 -348 144t-143.5 349v903q0 53 38 92.5t93 39.5t94 -39t39 -93v-903q0 -94 66.5 -161.5t161 -67.5t162 66.5t67.5 162.5v903q0 53 39 92.5 t93 39.5t93 -39t39 -93v-903q0 -205 -144.5 -349t-349 -144z" glyph-name="Uacute" horiz-adv-x="1138" unicode="Ú"/><glyph d="M864.5 1700.5q6.5 -41.5 -18.5 -75.5t-69 -38t-75 21l-129 98l-129 -98q-33 -27 -73.5 -21t-67.5 40t-21.5 75t40.5 67l190 146q61 47 123 0l190 -146q33 -27 39.5 -68.5zM573.5 -12q-204.5 0 -348 144t-143.5 349v903q0 53 38 92.5t93 39.5t94 -39t39 -93v-903 q0 -94 66.5 -161.5t161 -67.5t162 66.5t67.5 162.5v903q0 53 39 92.5t93 39.5t93 -39t39 -93v-903q0 -205 -144.5 -349t-349 -144z" glyph-name="Ucircumflex" horiz-adv-x="1138" unicode="Û"/><glyph d="M535 1710q0 -47 -34 -81t-81 -34t-82 34t-35 81t35 81t82 34t81 -34t34 -81zM844 1710q0 -47 -34 -81t-81 -34t-82 34t-35 81t35 81t82 34t81 -34t34 -81zM573.5 -12q-204.5 0 -348 144t-143.5 349v903q0 53 38 92.5t93 39.5t94 -39t39 -93v-903q0 -94 66.5 -161.5 t161 -67.5t162 66.5t67.5 162.5v903q0 53 39 92.5t93 39.5t93 -39t39 -93v-903q0 -205 -144.5 -349t-349 -144z" glyph-name="Udieresis" horiz-adv-x="1138" unicode="Ü"/><glyph d="M612 1616q-41 -20 -79.5 -8t-59.5 49q-20 39 -8 79t51 60l217 117q39 20 79 8t60 -50t8 -78t-49 -60zM715 133q0 -55 -39 -94t-93 -39t-93 39t-39 94v637l-377 539q-31 45 -22 99t54.5 85t99.5 21.5t85 -54.5l293 -418l290 418q33 45 86.5 54.5t98.5 -21.5t55 -85 t-22 -99l-377 -539v-637z" glyph-name="Yacute" horiz-adv-x="1157" unicode="Ý"/><glyph d="M969 458q0 -190 -125 -324t-289 -134q-47 0 -82 31t-39 81t28 89t96 45t114.5 63t50.5 133t-49.5 132.5t-111.5 63.5t-94 45t-30 83t28 76.5t66 42.5q66 14 107 68.5t41 128.5t-57.5 131t-137.5 57h-147v-1147q0 -51 -36 -87t-87 -36t-87 36t-36 87v1270q0 51 36 87 t85 36h272q182 0 311.5 -129.5t129.5 -305.5t-113 -301q156 -132 156 -322z" glyph-name="germandbls" horiz-adv-x="1030" unicode="ß"/><glyph d="M633 1126l-215 115q-37 20 -48.5 60t7 77t59.5 49.5t78 -6.5l215 -116q37 -20 50 -59.5t-7 -77.5t-60 -50t-79 8zM981 1024q53 0 90 -36t37 -87v-778q0 -51 -37 -87t-90 -36q-78 0 -113 72q-127 -86 -286 -86q-217 0 -369 153.5t-152 369.5t153 369.5t368 153.5 q156 0 284 -84q31 76 115 76zM581.5 250q106.5 0 183.5 75t77 183t-77 184t-183.5 76t-183 -76t-76.5 -184t76.5 -183t183 -75z" glyph-name="agrave" horiz-adv-x="1189" unicode="à"/><glyph d="M522 1124q-31 -18 -73.5 -8t-62.5 48t-7.5 77t49.5 59l215 117q37 20 78 7t60 -50t7 -75.5t-49 -59.5zM981 1024q53 0 90 -36t37 -87v-778q0 -51 -37 -87t-90 -36q-78 0 -113 72q-127 -86 -286 -86q-217 0 -369 153.5t-152 369.5t153 369.5t368 153.5q156 0 284 -84 q31 76 115 76zM581.5 250q106.5 0 183.5 75t77 183t-77 184t-183.5 76t-183 -76t-76.5 -184t76.5 -183t183 -75z" glyph-name="aacute" horiz-adv-x="1189" unicode="á"/><glyph d="M875 1220.5q6 -40.5 -21 -74.5t-68 -40t-73 20l-129 99l-129 -99q-31 -25 -73 -19.5t-69 39.5t-21.5 74t40.5 68l188 146q61 45 125 0l191 -146q33 -27 39 -67.5zM981 1024q53 0 90 -36t37 -87v-778q0 -51 -37 -87t-90 -36q-78 0 -113 72q-127 -86 -286 -86 q-217 0 -369 153.5t-152 369.5t153 369.5t368 153.5q156 0 284 -84q31 76 115 76zM581.5 250q106.5 0 183.5 75t77 183t-77 184t-183.5 76t-183 -76t-76.5 -184t76.5 -183t183 -75z" glyph-name="acircumflex" horiz-adv-x="1189" unicode="â"/><glyph d="M423 1108q-32 -45 -106.5 5t-46.5 128q37 98 146.5 129t208.5 -37q45 -31 63 -21t39 31t37 29q68 31 117 -25.5t14 -119.5q-59 -106 -152.5 -127t-207.5 53q-48 32 -64 16t-48 -61zM981 1024q53 0 90 -36t37 -87v-778q0 -51 -37 -87t-90 -36q-78 0 -113 72 q-127 -86 -286 -86q-217 0 -369 153.5t-152 369.5t153 369.5t368 153.5q156 0 284 -84q31 76 115 76zM581.5 250q106.5 0 183.5 75t77 183t-77 184t-183.5 76t-183 -76t-76.5 -184t76.5 -183t183 -75z" glyph-name="atilde" horiz-adv-x="1189" unicode="ã"/><glyph d="M545 1223q0 -47 -34 -81t-81 -34t-81 34t-34 81t34 80.5t81 33.5t81 -33.5t34 -80.5zM852 1223q0 -47 -34 -81t-81 -34t-80.5 34t-33.5 81t33.5 80.5t80.5 33.5t81 -33.5t34 -80.5zM981 1024q53 0 90 -36t37 -87v-778q0 -51 -37 -87t-90 -36q-78 0 -113 72 q-127 -86 -286 -86q-217 0 -369 153.5t-152 369.5t153 369.5t368 153.5q156 0 284 -84q31 76 115 76zM581.5 250q106.5 0 183.5 75t77 183t-77 184t-183.5 76t-183 -76t-76.5 -184t76.5 -183t183 -75z" glyph-name="adieresis" horiz-adv-x="1189" unicode="ä"/><glyph d="M583.5 1550q94.5 0 160 -65.5t65.5 -159.5t-65.5 -159.5t-160 -65.5t-160 65.5t-65.5 159.5t65.5 159.5t160 65.5zM583.5 1407q-34.5 0 -59 -24.5t-24.5 -58.5t24.5 -58.5t58.5 -24.5t58.5 24.5t24.5 59.5t-24 58.5t-58.5 23.5zM981 1024q53 0 90 -36t37 -87v-778 q0 -51 -37 -87t-90 -36q-78 0 -113 72q-127 -86 -286 -86q-217 0 -369 153.5t-152 369.5t153 369.5t368 153.5q156 0 284 -84q31 76 115 76zM581.5 250q106.5 0 183.5 75t77 183t-77 184t-183.5 76t-183 -76t-76.5 -184t76.5 -183t183 -75z" glyph-name="aring" horiz-adv-x="1189" unicode="å"/><glyph d="M1657 436h-563q43 -145 208.5 -192t294.5 45q41 29 91 19.5t78 -51.5t19 -90t-50 -77q-150 -102 -324 -102t-315 84q-31 -72 -112 -72t-112 72q-135 -86 -286 -86q-217 0 -371 152.5t-154 370.5t154 370.5t371 152.5q147 0 282 -84q35 76 112 76t112 -63q125 73 261 73 t251.5 -64.5t175.5 -162.5q123 -199 63 -309q-18 -31 -52 -45.5t-55.5 -15.5t-78.5 -1zM1357 813q-95 0 -168 -53t-91 -133h516q-18 80 -90 133t-167 53zM584 250q108 0 185 75t77 183t-77 184t-185 76t-183 -76t-75 -184t75 -183t183 -75z" glyph-name="ae" horiz-adv-x="1916" unicode="æ"/><glyph d="M817 -276q0 -86 -69.5 -156t-159.5 -70t-155.5 53.5t-82.5 135.5q-6 35 12.5 62.5t51.5 34.5t61.5 -11.5t33.5 -48.5t25.5 -46t48.5 -16t49 21.5t21 51.5t-21.5 51t-53.5 21t-55 24t-23 56v105q-188 31 -313.5 177t-125.5 351t154 358.5t371 153.5q180 0 319 -108 q43 -33 50.5 -87.5t-25.5 -98.5t-88.5 -51t-98.5 26q-67 55 -165 55t-175 -77t-77 -183.5t75.5 -182t172.5 -75.5q96 0 154 43t112.5 36t88.5 -51t26.5 -98.5t-52.5 -87.5q-109 -84 -241 -102v-35q70 -25 112.5 -85t42.5 -146z" glyph-name="ccedilla" horiz-adv-x="1007" unicode="ç"/><glyph d="M541 1120l-217 115q-37 20 -49.5 59t8 78t60.5 51.5t77 -8.5l217 -115q37 -20 49 -60t-8.5 -77t-59 -50t-77.5 7zM879 434h-566q27 -94 115 -151.5t190.5 -54.5t200.5 57q41 31 89 20.5t77 -52.5t19.5 -91t-48.5 -76q-223 -147 -481 -83.5t-364 290.5q-66 125 -50.5 256 t79 238.5t181 176t253.5 68.5t251 -64.5t189 -179.5q115 -188 53 -296q-20 -29 -55 -42.5t-56.5 -14.5t-76.5 -1zM577 809q-95 0 -168.5 -52t-91.5 -134h517q-16 82 -89 134t-168 52z" glyph-name="egrave" horiz-adv-x="1136" unicode="è"/><glyph d="M512 1120q-31 -18 -73 -7t-62 49t-8 77t49 59l215 117q39 20 79 7t60.5 -50t7 -78t-50.5 -59zM879 434h-566q27 -94 115 -151.5t190.5 -54.5t200.5 57q41 31 89 20.5t77 -52.5t19.5 -91t-48.5 -76q-223 -147 -481 -83.5t-364 290.5q-66 125 -50.5 256t79 238.5t181 176 t253.5 68.5t251 -64.5t189 -179.5q115 -188 53 -296q-20 -29 -55 -42.5t-56.5 -14.5t-76.5 -1zM577 809q-95 0 -168.5 -52t-91.5 -134h517q-16 82 -89 134t-168 52z" glyph-name="eacute" horiz-adv-x="1136" unicode="é"/><glyph d="M862.5 1215.5q6.5 -41.5 -19.5 -74.5t-64 -40t-79 19l-129 99l-127 -97q-35 -27 -75.5 -21.5t-66.5 39.5t-19.5 74.5t39.5 67.5l188 145q61 47 123 0l190 -145q33 -25 39.5 -66.5zM879 434h-566q27 -94 115 -151.5t190.5 -54.5t200.5 57q41 31 89 20.5t77 -52.5t19.5 -91 t-48.5 -76q-223 -147 -481 -83.5t-364 290.5q-66 125 -50.5 256t79 238.5t181 176t253.5 68.5t251 -64.5t189 -179.5q115 -188 53 -296q-20 -29 -55 -42.5t-56.5 -14.5t-76.5 -1zM577 809q-95 0 -168.5 -52t-91.5 -134h517q-16 82 -89 134t-168 52z" glyph-name="ecircumflex" horiz-adv-x="1134" unicode="ê"/><glyph d="M199 1139l-219 116q-37 20 -48.5 60.5t6.5 78.5t59.5 50t80.5 -8l219 -115q39 -20 50 -61t-8 -79t-60 -50t-80 8zM227.5 0q-55.5 0 -96.5 40t-41 95v766q0 55 41 95t96.5 40t93 -40t37.5 -95v-766q0 -55 -37.5 -95t-93 -40z" glyph-name="igrave" horiz-adv-x="442" unicode="ì"/><glyph d="M233 1139q-39 -20 -78.5 -8t-60.5 49q-20 39 -9 79.5t50 61.5l223 115q39 20 78 8t57.5 -49t7 -78t-47.5 -62zM217 0q-55 0 -95 40t-40 95v766q0 55 40 95t95 40t94 -40t39 -95v-766q0 -55 -39 -95t-94 -40z" glyph-name="iacute" horiz-adv-x="434" unicode="í"/><glyph d="M218.5 1475q35.5 0 64.5 -23l194 -147q31 -25 36.5 -68t-18.5 -77t-65 -42t-82 21l-127 104l-131 -104q-33 -25 -77 -21t-68 41q-25 33 -20 76t40 70l191 147q27 23 62.5 23zM221 0q-55 0 -95 40t-40 95v766q0 55 40 95t95 40t93 -40t38 -95v-766q0 -55 -38 -95t-93 -40z " glyph-name="icircumflex" horiz-adv-x="438" unicode="î"/><glyph d="M172 1234q0 -48 -35 -84t-83 -36t-81.5 36t-33.5 84t34.5 82t81.5 34t82 -34t35 -82zM485 1234q0 -48 -34.5 -84t-82.5 -36t-82 36t-34 84t34 82t82 34t82.5 -34t34.5 -82zM210 0q-56 0 -94 40t-38 95v766q0 55 38 95t94 40t96 -40t40 -95v-766q0 -55 -40 -95t-96 -40z " glyph-name="idieresis" horiz-adv-x="423" unicode="ï"/><glyph d="M1124 514q0 -217 -154.5 -371.5t-372.5 -154.5t-371.5 154.5t-153.5 370.5t151.5 371.5t368.5 157.5l-55 95l-27 -17q-91 -44 -139 37q-20 35 -10 76t45 63l24 15q-31 53 -16.5 106t61.5 81t101.5 13.5t82.5 -65.5l29 16q35 20 76 10t63 -45q20 -37 10 -76.5t-46 -62.5 l-27 -16l301 -512q59 -106 59 -246zM596 252q108 0 186 77t78 187t-75.5 186t-185.5 76t-187.5 -76.5t-77.5 -186.5t77 -186.5t185 -76.5z" glyph-name="eth" horiz-adv-x="1216" unicode="ð"/><glyph d="M379 1128q-57 -57 -126 -11t-40 124q37 98 146.5 129t207.5 -37q45 -31 63 -21t39 31t38 29q68 31 116.5 -25.5t14.5 -119.5q-59 -106 -152.5 -127t-208.5 53q-55 37 -74.5 8t-23.5 -33zM528 1034q184 0 314.5 -131t130.5 -315v-457q0 -53 -38 -92t-93.5 -39t-93 39 t-37.5 92v457q0 76 -53.5 129t-129 53t-129 -53t-53.5 -129v-457q0 -53 -39 -92t-93 -39t-93 39t-39 92v768q0 51 37 88t92 37t94 -49q106 59 223 59z" glyph-name="ntilde" horiz-adv-x="1034" unicode="ñ"/><glyph d="M561 1120l-217 115q-37 20 -49 59t8.5 78t60 51.5t76.5 -8.5l215 -115q39 -23 52 -61.5t-7 -75.5t-62 -50t-77 7zM586 1032q217 0 370.5 -153.5t153.5 -370.5t-153.5 -370.5t-370.5 -153.5t-371 153.5t-154 370.5t154 370.5t371 153.5zM585.5 768q-106.5 0 -183 -77 t-76.5 -183.5t76.5 -183t183 -76.5t183.5 76.5t77 183t-77 183.5t-183.5 77z" glyph-name="ograve" horiz-adv-x="1171" unicode="ò"/><glyph d="M586 1120q-35 -20 -77 -7t-61 50t-7 76t51 61l215 115q37 20 77 8t60 -50t8 -78t-49 -60zM586 1032q217 0 370.5 -153.5t153.5 -370.5t-153.5 -370.5t-370.5 -153.5t-371 153.5t-154 370.5t154 370.5t371 153.5zM585.5 768q-106.5 0 -183 -77t-76.5 -183.5t76.5 -183 t183 -76.5t183.5 76.5t77 183t-77 183.5t-183.5 77z" glyph-name="oacute" horiz-adv-x="1171" unicode="ó"/><glyph d="M583.5 1450q34.5 0 63.5 -20l191 -146q35 -27 40 -66.5t-22 -73.5t-67.5 -40t-73.5 18l-129 99l-129 -99q-33 -25 -74 -18.5t-67.5 39.5t-20.5 73.5t39 67.5l188 146q27 20 61.5 20zM586 1032q217 0 370.5 -153.5t153.5 -370.5t-153.5 -370.5t-370.5 -153.5t-371 153.5 t-154 370.5t154 370.5t371 153.5zM585.5 768q-106.5 0 -183 -77t-76.5 -183.5t76.5 -183t183 -76.5t183.5 76.5t77 183t-77 183.5t-183.5 77z" glyph-name="ocircumflex" horiz-adv-x="1171" unicode="ô"/><glyph d="M423 1108q-32 -45 -106.5 5t-46.5 128q37 98 146.5 129t208.5 -37q45 -31 63 -21t39 31t37 29q68 31 117 -25.5t14 -119.5q-59 -106 -152.5 -127t-207.5 53q-48 32 -64 16t-48 -61zM586 1032q217 0 370.5 -153.5t153.5 -370.5t-153.5 -370.5t-370.5 -153.5t-371 153.5 t-154 370.5t154 370.5t371 153.5zM585.5 768q-106.5 0 -183 -77t-76.5 -183.5t76.5 -183t183 -76.5t183.5 76.5t77 183t-77 183.5t-183.5 77z" glyph-name="otilde" horiz-adv-x="1171" unicode="õ"/><glyph d="M547 1214.5q0 -47.5 -34 -82t-81 -34.5t-82 34.5t-35 82t35 81t82 33.5t81 -33.5t34 -81zM856 1214.5q0 -47.5 -34 -82t-82 -34.5t-81.5 34.5t-33.5 82t33.5 81t81.5 33.5t82 -33.5t34 -81zM586 1032q217 0 370.5 -153.5t153.5 -370.5t-153.5 -370.5t-370.5 -153.5 t-371 153.5t-154 370.5t154 370.5t371 153.5zM585.5 768q-106.5 0 -183 -77t-76.5 -183.5t76.5 -183t183 -76.5t183.5 76.5t77 183t-77 183.5t-183.5 77z" glyph-name="odieresis" horiz-adv-x="1171" unicode="ö"/><glyph d="M692 921.5q0 -49.5 -35 -84t-83 -34.5t-83.5 35.5t-35.5 83.5t35.5 84t83.5 36t83 -35.5t35 -85zM987 489h-823q-47 0 -80 32t-33 78t33 77t80 31h823q45 0 77 -31t32 -77t-32 -78t-77 -32zM692 275q0 -50 -35 -85.5t-83 -35.5t-83.5 35.5t-35.5 85t34.5 84t84.5 34.5 t84 -34t34 -84z" glyph-name="divide" horiz-adv-x="1136" unicode="÷"/><glyph d="M586 -16q-113 0 -217 47q-14 -25 -41 -32t-54 9t-32.5 44t8.5 54q-188 158 -188 388t153.5 384t370.5 154q111 0 211 -45q14 25 43.5 32t54.5 -9.5t31 -44t-8 -52.5q193 -160 192 -405q0 -217 -153.5 -370.5t-370.5 -153.5zM326 522q0 -114 65 -186l264 422 q-129 35 -229 -43.5t-100 -192.5zM846 496q0 114 -70 188l-264 -426q131 -35 232.5 44.5t101.5 193.5z" glyph-name="oslash" horiz-adv-x="1171" unicode="ø"/><glyph d="M487 1124l-217 115q-37 20 -50 60t7.5 77t60.5 50.5t77 -7.5l217 -116q37 -18 50 -59.5t-7 -79.5t-64.5 -48t-73.5 8zM527 -16q-185 0 -315 131t-130 315v463q0 53 38 92t93 39t94 -39t39 -92v-463q0 -76 53.5 -129t129 -53t129 53t53.5 129v463q0 53 37.5 92t93 39 t94.5 -39t39 -92v-463q0 -184 -131.5 -315t-316.5 -131z" glyph-name="ugrave" horiz-adv-x="1036" unicode="ù"/><glyph d="M553 1124q-39 -20 -78 -8t-59.5 49t-8 77t49.5 61l217 116q37 20 77 7t60 -50t8 -76.5t-49 -60.5zM527 -16q-185 0 -315 131t-130 315v463q0 53 38 92t93 39t94 -39t39 -92v-463q0 -76 53.5 -129t129 -53t129 53t53.5 129v463q0 53 37.5 92t93 39t94.5 -39t39 -92v-463 q0 -184 -131.5 -315t-316.5 -131z" glyph-name="uacute" horiz-adv-x="1036" unicode="ú"/><glyph d="M798.5 1147q-26.5 -33 -68.5 -39t-75 18l-129 99l-127 -99q-35 -27 -76.5 -21.5t-66.5 40.5t-18.5 77t36.5 66l191 146q61 47 123 0l192 -146q33 -25 39 -66.5t-20.5 -74.5zM527 -16q-185 0 -315 131t-130 315v463q0 53 38 92t93 39t94 -39t39 -92v-463q0 -76 53.5 -129 t129 -53t129 53t53.5 129v463q0 53 37.5 92t93 39t94.5 -39t39 -92v-463q0 -184 -131.5 -315t-316.5 -131z" glyph-name="ucircumflex" horiz-adv-x="1036" unicode="û"/><glyph d="M489 1218q0 -48 -34.5 -82t-81.5 -34t-81 34t-34 82t34 81.5t81 33.5t81.5 -33.5t34.5 -81.5zM799 1218q0 -48 -35 -82t-82 -34t-81 34t-34 82t34 81.5t81 33.5t82 -33.5t35 -81.5zM528.5 -16q-184.5 0 -315.5 131t-131 315v463q0 53 39 92t93 39t93 -39t39 -92v-463 q0 -76 53.5 -129t129 -53t129 53t53.5 129v463q0 53 38.5 92t92.5 39t93.5 -39t39.5 -92v-463q0 -184 -131 -315t-315.5 -131z" glyph-name="udieresis" horiz-adv-x="1036" unicode="ü"/><glyph d="M614 1124q-31 -18 -73.5 -8t-62.5 48t-7.5 77t49.5 59l215 117q37 20 78 7t60 -50t7 -75.5t-49 -59.5zM162 -389q-55 0 -93 40t-38 95t39.5 92t109.5 37t136.5 44t97.5 120l28 61l-305 746q-23 49 0 100t74 72q49 23 99 0t71 -74l205 -498l202 498q20 51 72 74t101 0 q51 -20 73.5 -71.5t-0.5 -100.5l-375 -914q-59 -147 -194 -234t-303 -87z" glyph-name="yacute" horiz-adv-x="1105" unicode="ý"/><glyph d="M543 1223q0 -47 -34 -81t-81 -34t-81 34t-34 81t34 80.5t81 33.5t81 -33.5t34 -80.5zM850 1223q0 -47 -34 -81t-81 -34t-80.5 34t-33.5 81t33.5 80.5t80.5 33.5t81 -33.5t34 -80.5zM162 -389q-55 0 -93 40t-38 95t39.5 92t109.5 37t136.5 44t97.5 120l28 61l-305 746 q-23 49 0 100t74 72q49 23 99 0t71 -74l205 -498l202 498q20 51 72 74t101 0q51 -20 73.5 -71.5t-0.5 -100.5l-375 -914q-59 -147 -194 -234t-303 -87z" glyph-name="ydieresis" horiz-adv-x="1105" unicode="ÿ"/><glyph d="M954 266q55 0 94 -39t39 -94t-38.5 -94t-94.5 -39h-536q-55 0 -94 39t-39 94v387l-76 -86q-27 -31 -70 -34t-75 25t-34.5 70t25.5 74l230 260v553q0 55 38.5 94.5t94 39.5t94.5 -39t39 -95v-249l86 100q29 31 70 33t73.5 -25t35.5 -69t-25 -74l-240 -275v-557h403z" glyph-name="Lslash" horiz-adv-x="1128" unicode="Ł"/><glyph d="M561 133q0 -55 -40 -94t-94 -39t-94 39t-40 94v293l-82 -96q-29 -31 -70 -33t-75 25q-33 27 -36 69.5t25 73.5l238 272v492q0 55 40 94t94 39t94 -39t40 -94v-187l78 88q27 33 69.5 36.5t74.5 -24.5t35 -71t-25 -76l-232 -264v-598z" glyph-name="lslash" horiz-adv-x="868" unicode="ł"/><glyph d="M2007 266q55 0 94 -39t39 -94t-39 -94t-94 -39h-534q-55 0 -94.5 39t-39.5 94v37q-219 -188 -521 -188t-529.5 225t-227.5 546.5t226.5 547t530.5 225.5t521 -189v45q0 55 39 94.5t95 39.5h534q55 0 94 -39t39 -93t-39 -94.5t-94 -40.5h-399v-377h383q45 0 78.5 -32.5 t33.5 -79.5t-32.5 -80t-79.5 -33h-383v-381h399zM833.5 248q210.5 0 358 149.5t147.5 357.5t-147.5 356.5t-358 148.5t-358 -149.5t-147.5 -357.5t147.5 -356.5t358 -148.5z" glyph-name="OE" horiz-adv-x="2211" unicode="Œ"/><glyph d="M1655 436h-565q41 -145 205.5 -193t297.5 44q41 29 90.5 19.5t78 -50.5t19.5 -91t-50 -79q-176 -119 -389.5 -98.5t-364.5 172.5q-156 -176 -382 -176t-380 153.5t-154 370.5t154 370.5t376 153.5t380 -168q150 170 381 170q133 0 248.5 -64.5t187.5 -178.5 q108 -183 51 -295q-32 -52 -81.5 -56t-102.5 -4zM1351.5 813q-94.5 0 -167 -54t-90.5 -134h516q-18 80 -91 134t-167.5 54zM585.5 248q106.5 0 183.5 76.5t77 183t-77 183.5t-183.5 77t-183 -77t-76.5 -183.5t76.5 -183t183 -76.5z" glyph-name="oe" horiz-adv-x="1912" unicode="œ"/><glyph d="M695 1932.5q42 -5.5 68 -39.5t19.5 -76.5t-39.5 -69.5l-192 -145q-27 -20 -62.5 -20.5t-62.5 20.5l-193 147q-35 27 -40 68t22 75.5t68 39.5t75 -21l129 -99l131 99q35 27 77 21.5zM801 156q-127 -147 -323.5 -164t-360.5 92q-43 31 -53.5 86t20.5 98t85 54.5t99 -19.5 q70 -53 172.5 -49t163.5 76q78 102 31 202.5t-197 137.5t-255 155.5t-100 256.5t74.5 237.5t172 151t227.5 52.5t234 -61q47 -27 60 -81t-15 -101t-82 -60.5t-99 13.5q-92 53 -195.5 6t-109.5 -145q-4 -74 42 -112t138 -62q162 -43 267.5 -157t117.5 -267q15 -203 -114 -340 z" glyph-name="Scaron" horiz-adv-x="978" unicode="Š"/><glyph d="M358.5 1098q-34.5 0 -63.5 20l-193 148q-35 27 -40 67.5t22 75.5t68 40t75 -22l129 -98l131 98q35 27 77 22t68 -39t19.5 -77t-39.5 -69l-192 -146q-27 -20 -61.5 -20zM386 797q-7 0 -45.5 -7.5t-40 -48.5t26.5 -59q29 -18 105 -34t145.5 -80t94.5 -158t-7 -190 t-104 -154t-171 -75.5t-195 8.5q-95 26 -129 67t-35.5 87t20.5 76q53 86 207 37q35 -16 86 -10t66 45q31 82 -119 123q-88 25 -160 96.5t-84 163.5q-25 166 123.5 274.5t333.5 59.5q68 -18 104 -55q61 -57 21 -134q-25 -43 -73 -49t-70 0t-38 9.5t-22 4.5t-19.5 2t-20.5 1z " glyph-name="scaron" horiz-adv-x="763" unicode="š"/><glyph d="M535 1717q0 -48 -35 -83t-83 -35t-82 35t-34 83t34 82t82 34t83 -34t35 -82zM846 1717q0 -48 -34 -83t-82 -35t-83 35t-35 83t35 82t83 34t82 -34t34 -82zM715 133q0 -55 -39 -94t-93 -39t-93 39t-39 94v637l-377 539q-31 45 -22 99t54.5 85t99.5 21.5t85 -54.5l293 -418 l290 418q33 45 86.5 54.5t98.5 -21.5t55 -85t-22 -99l-377 -539v-637z" glyph-name="Ydieresis" horiz-adv-x="1157" unicode="Ÿ"/><glyph d="M828.5 1932.5q41.5 -5.5 67.5 -39.5t19.5 -76.5t-38.5 -69.5l-193 -145q-64 -44 -125 0l-192 147q-35 27 -40 68t21.5 75.5t67.5 39.5t76 -21l129 -99l131 99q35 27 76.5 21.5zM1057 264q55 0 94 -39t39 -93t-39 -93t-94 -39h-869q-80 0 -117.5 71.5t7.5 137.5l743 1063 h-649q-51 0 -86 34.5t-35 86t35 87.5t86 36h881q90 0 127 -72t-11 -137l-729 -1043h617z" glyph-name="Zcaron" horiz-adv-x="1234" unicode="Ž"/><glyph d="M705.5 1447q41.5 -5 67.5 -39t19.5 -77t-38.5 -69l-193 -146q-61 -48 -125 0l-192 148q-35 27 -40 67.5t21.5 75.5t67.5 40t76 -22l129 -98l131 98q35 27 76.5 22zM815 264q55 0 94 -39t39 -93t-39 -93t-94 -39h-631q-84 0 -120.5 77t18.5 144l467 559h-375q-51 0 -87 35 t-36 86t36 87t87 36h643q82 0 119 -76t-18 -141l-453 -543h350z" glyph-name="zcaron" horiz-adv-x="989" unicode="ž"/><glyph d="M748 846q47 0 78.5 -32t31.5 -80t-31.5 -80.5t-78.5 -32.5h-197v-641q0 -152 -107.5 -258.5t-257.5 -106.5q-55 0 -95 40t-40 94t40 93t87 39t77 29t30 70v976q0 166 115.5 282t281.5 116h49q55 0 93 -38t38 -93.5t-38 -95.5t-93 -40h-49q-55 0 -93 -37.5t-38 -93.5v-110 h197z" glyph-name="florin" horiz-adv-x="903" unicode="ƒ"/><glyph d="M358.5 1946q34.5 0 61.5 -23l192 -145q33 -27 39.5 -70t-19.5 -77t-68 -39t-77 22l-131 98l-129 -98q-35 -27 -75.5 -22t-67.5 40t-21.5 76t39.5 68l193 147q29 23 63.5 23z" glyph-name="circumflex" horiz-adv-x="714" unicode="ˆ"/><glyph d="M564 1932.5q42 -5.5 68 -39.5t19.5 -76.5t-39.5 -69.5l-192 -145q-27 -20 -61.5 -20.5t-63.5 20.5l-193 147q-35 27 -40 68t22 75.5t68 39.5t75 -21l129 -99l131 99q35 27 77 21.5z" glyph-name="caron" horiz-adv-x="714" unicode="ˇ"/><glyph d="M318 1581q-99 0 -171.5 65.5t-85.5 163.5q-2 33 18.5 59.5t53.5 31t59.5 -16t30.5 -56.5t32 -59.5t64.5 -23.5t63.5 24.5t30 58.5t29.5 56.5t59.5 19.5t55.5 -30t17.5 -62q-10 -98 -84 -164.5t-173 -66.5z" glyph-name="breve" horiz-adv-x="636" unicode="˘"/><glyph d="M295 1717q0 -48 -35 -83t-83 -35t-82 35t-34 83t34 82t82 34t83 -34t35 -82z" glyph-name="dotaccent" horiz-adv-x="356" unicode="˙"/><glyph d="M289 2044q94 0 160.5 -66.5t66.5 -161t-66.5 -162t-160.5 -67.5t-161 67.5t-67 162t67 161t161 66.5zM289 1901q-35 0 -59.5 -25t-24.5 -59.5t24.5 -59t59.5 -24.5t59.5 24.5t24.5 59t-24.5 59.5t-59.5 25z" glyph-name="ring" horiz-adv-x="577" unicode="˚"/><glyph d="M465 -342q-113 -74 -240 -20q-117 45 -152.5 172t36.5 233q76 106 213 121q39 4 67.5 -17.5t31.5 -55.5t-19.5 -60.5t-55.5 -28.5q-88 -8 -125 -57q-35 -63 -19.5 -118.5t75 -85.5t119 -3.5t83.5 -5.5q14 -23 9 -43.5t-23 -30.5z" glyph-name="ogonek" horiz-adv-x="548" unicode="˛"/><glyph d="M236 1653q-57 -57 -126 -11t-40 123q37 98 146.5 129t207.5 -36q46 -31 64 -22t38.5 30.5t36.5 29.5q68 31 117 -25t14 -120q-59 -106 -152 -126.5t-208 52.5q-38 25 -52 20t-21 -12.5t-14 -17.5t-11 -14z" glyph-name="tilde" horiz-adv-x="768" unicode="˜"/><glyph d="M213 1616q-41 -20 -80 -8t-59 50t-8 78t51 60l217 117q39 20 79 8t60 -50t8 -78t-49 -60zM664 1616q-41 -20 -80 -8t-60 49q-20 39 -8 79t51 60l217 117q39 20 79.5 8t60.5 -50t8 -78t-49 -60z" glyph-name="hungarumlaut" horiz-adv-x="874" unicode="˝"/><glyph d="M1082 0q-54 0 -93 39t-39 94v1118h-602v-1118q0 -55 -39 -94t-94 -39t-94 39t-39 94v1251q0 53 39 92.5t94 39.5h866q55 0 94 -39t39 -93v-1251q0 -55 -39 -94t-93 -39z" glyph-name="Pi" horiz-adv-x="1286" unicode="Π"/><glyph d="M1651 225q47 0 79.5 -32.5t32.5 -79.5t-32.5 -80t-79.5 -33h-463q-68 0 -107 49t-26.5 110.5t71.5 92.5q133 68 211 198t78 285q0 221 -147.5 378t-355.5 157t-355 -157t-147 -378q0 -156 78.5 -287t207.5 -194q59 -31 71.5 -93.5t-24 -111.5t-96.5 -49h-473 q-47 0 -80 33t-33 80t33 79.5t80 32.5h145q-20 27 -57 80q-121 201 -121 430q0 332 226.5 566.5t544.5 234.5t544.5 -234.5t226.5 -566.5q0 -229 -120 -430q-37 -53 -58 -80h146z" glyph-name="Omega" horiz-adv-x="1824" unicode="Ω"/><glyph d="M841.5 1024q55.5 0 94.5 -39t39 -94v-461q0 -184 -131 -315t-316 -131q-94 0 -182 39v-273q0 -55 -39 -94t-94 -39t-93 39t-38 94v1141q0 55 38 94t93 39t94 -39t39 -94v-461q0 -76 53.5 -129t129 -53t129 53t53.5 129v461q0 55 37.5 94t93 39z" glyph-name="mu" horiz-adv-x="1026" unicode="μ"/><glyph d="M1170 264q46 0 85 -39t39 -93t-38.5 -93t-94.5 -39q-145 0 -248.5 102.5t-103.5 247.5v410h-242l-149 -656q-12 -53 -59.5 -81.5t-100.5 -17.5t-83 58.5t-17 100.5l139 596h-82q-55 0 -94 39t-39 93t39 93t94 39h723q57 0 96 -42t39 -99v-533q0 -35 25.5 -60.5 t71.5 -25.5z" glyph-name="pi" horiz-adv-x="1345" unicode="π"/><glyph d="M1231 492h-1022q-51 0 -89 36.5t-38 87.5t38 87t89 36h1022q51 0 87 -34.5t36 -86.5t-36 -89t-87 -37z" glyph-name="endash" horiz-adv-x="1435" unicode="–"/><glyph d="M63 1386q-10 43 12.5 81t65.5 47t80 -13t47 -67l47 -197q8 -39 -7 -75t-58 -54t-85 6.5t-54 71.5z" glyph-name="quoteleft" horiz-adv-x="370" unicode="‘"/><glyph d="M260 1186q-12 -47 -54 -71.5t-85 -6.5t-58.5 54t-7.5 75l47 197q10 45 47 67.5t80 12.5t65.5 -47t12.5 -81z" glyph-name="quoteright" horiz-adv-x="370" unicode="’"/><glyph d="M63 1386q-10 43 12.5 81t65.5 47t80 -13t47 -67l47 -197q8 -39 -7 -75t-58 -54t-85 6.5t-54 71.5zM371 1386q-10 43 12.5 81t64.5 47t79.5 -13t47.5 -67l48 -197q8 -39 -7.5 -75t-58.5 -54t-85 6.5t-54 71.5z" glyph-name="quotedblleft" horiz-adv-x="677" unicode="“"/><glyph d="M260 1186q-12 -47 -54 -71.5t-85 -6.5t-58.5 54t-7.5 75l47 197q10 45 47 67.5t80 12.5t65.5 -47t12.5 -81zM567 1186q-12 -47 -54 -71.5t-85 -6.5t-58.5 54t-7.5 75l48 197q10 45 47 67.5t80 12.5t65.5 -47t11.5 -81z" glyph-name="quotedblright" horiz-adv-x="677" unicode="”"/><glyph d="M260 -150q-12 -47 -54 -71.5t-85 -6.5t-58.5 54.5t-7.5 75.5l47 196q10 45 47 67.5t80 13.5t65.5 -47t12.5 -81zM567 -150q-12 -47 -54 -71.5t-85 -6.5t-58.5 54.5t-7.5 75.5l48 196q10 45 47 67.5t80 13.5t65.5 -47t11.5 -81z" glyph-name="quotedblbase" horiz-adv-x="677" unicode="„"/><glyph d="M1001 993q47 0 80 -33.5t33 -78.5t-32.5 -79t-80.5 -34h-311v-1044q0 -47 -33.5 -80t-79 -33t-79 32.5t-33.5 80.5v1044h-311q-47 0 -80 34t-33 79t32.5 78.5t80.5 33.5h311v410q0 47 33.5 80t79 33t79 -33t33.5 -80v-410h311z" glyph-name="dagger" horiz-adv-x="1144" unicode="†"/><glyph d="M1001 641q47 0 80 -34t33 -79t-32.5 -78.5t-80.5 -33.5h-311v-692q0 -47 -33.5 -80t-79 -33t-79 32.5t-33.5 80.5v692h-311q-47 0 -80 33.5t-33 78.5t32.5 79t80.5 34h311v127h-311q-47 0 -80 34t-33 79t32.5 78.5t80.5 33.5h311v410q0 47 33.5 80t79 33t79 -33t33.5 -80 v-410h311q47 0 80 -33.5t33 -78.5t-32.5 -79t-80.5 -34h-311v-127h311z" glyph-name="daggerdbl" horiz-adv-x="1144" unicode="‡"/><glyph d="M610 505q0 -116 -79.5 -196t-194.5 -80t-195 80t-80 196t80 196.5t195 80.5t194.5 -80.5t79.5 -196.5z" glyph-name="bullet" horiz-adv-x="671" unicode="•"/><glyph d="M592 53q-16 -35 -54 -48t-79 6t-53.5 59.5t8.5 81.5l690 1314q20 37 61 48.5t78 -7t48.5 -59.5t-9.5 -80zM407 829q-142 0 -244 101.5t-102 242.5t101.5 244t243.5 103t244 -102t102 -244t-101.5 -243.5t-243.5 -101.5zM405.5 1315q-57.5 0 -98.5 -42.5t-41 -100.5 t41 -98t98.5 -40t99.5 40t42 97.5t-42 100.5t-99.5 43zM1289 0q-142 0 -243.5 101.5t-101.5 243.5t101.5 243.5t243.5 101.5t243.5 -101.5t101.5 -243.5t-101.5 -243.5t-243.5 -101.5zM2080 0q-142 0 -243.5 101.5t-101.5 243.5t101.5 243.5t243.5 101.5t243.5 -101.5 t101.5 -243.5t-101.5 -243.5t-243.5 -101.5zM1290.5 485q-57.5 0 -99.5 -42t-42 -99t42 -98t99.5 -41t98.5 41t41 98t-41 99t-98.5 42zM2080.5 485q-57.5 0 -99.5 -42t-42 -99t42 -98t99.5 -41t98.5 41t41 98t-41 99t-98.5 42z" glyph-name="perthousand" horiz-adv-x="2455" unicode="‰"/><glyph d="M449 125q-46 0 -76 33l-279 278q-33 37 -32 80t32 76l279 278q33 35 78 35t77.5 -34.5t32.5 -77.5t-33 -78l-202 -201l202 -201q33 -33 33 -76.5t-33 -77.5t-79 -34z" glyph-name="guilsinglleft" horiz-adv-x="612" unicode="‹"/><glyph d="M159 904.5q46 0.5 77 -34.5l278 -278q31 -33 32 -76t-32 -80l-278 -278q-33 -33 -76 -33t-76 34t-33 76.5t33 77.5l199 201l-199 201q-33 35 -32 78t31 77t76 34.5z" glyph-name="guilsinglright" horiz-adv-x="608" unicode="›"/><glyph d="M229 49q-23 -37 -64.5 -45t-76.5 12t-45 62.5t12 77.5l815 1317q23 35 64 45t78 -12.5t46 -63.5t-14 -76z" glyph-name="fraction" horiz-adv-x="1091" unicode="⁄"/><glyph d="M723 864q0 -37 -27.5 -63.5t-66.5 -26.5v-69q0 -39 -28 -67t-66.5 -28t-66.5 28t-28 67v69h-301q-51 0 -77.5 47t4.5 92l393 576q37 55 103.5 34.5t66.5 -89.5v-482q39 0 66.5 -25.5t27.5 -62.5zM440 952v197l-135 -197h135z" glyph-name="uni2074" horiz-adv-x="774" unicode="⁴"/><glyph d="M176 467q-49 0 -82 34t-33 81t33 78.5t82 31.5h49q-4 42 -4 62t4 69h-49q-49 0 -82 32t-33 79t33 81t82 34h103q115 279 379 404.5t563 41.5q53 -14 78.5 -64.5t7.5 -104.5t-68.5 -78.5t-95.5 -10.5q-154 49 -310.5 -3t-250.5 -185h368q45 0 78 -34t33 -80t-33 -79 t-78 -33h-454q-4 -25 -4 -67t4 -64h454q45 0 78 -32.5t33 -78.5t-33 -80t-78 -34h-368q98 -137 248.5 -191.5t312.5 -1.5q51 16 99 -8t64.5 -77.5t-8 -103.5t-77.5 -65q-299 -78 -564.5 48.5t-377.5 398.5h-103z" glyph-name="Euro" horiz-adv-x="1366" unicode="€"/><glyph d="M1317 1448v-633q0 -29 -19.5 -48t-48 -19t-48 19t-19.5 48v391l-197 -397q-16 -33 -51 -33t-51 33l-195 397v-391q0 -29 -19 -48t-47 -19t-47.5 19t-19.5 48v633q0 41 38.5 60.5t62.5 -0.5t49 -72l231 -475l229 475q25 52 51 72t63.5 0.5t37.5 -60.5zM442 1516 q27 0 46.5 -20.5t19.5 -47.5t-19.5 -47.5t-46.5 -20.5h-104v-561q0 -29 -20.5 -49t-48.5 -20t-47 20.5t-19 48.5v561h-105q-29 0 -48 20.5t-19 47.5t20.5 47.5t46.5 20.5h344z" glyph-name="trademark" horiz-adv-x="1368" unicode="™"/><glyph d="M1075 977v-479q0 -211 -148.5 -360.5t-358.5 -149.5t-358.5 149.5t-148.5 358.5t148.5 357t359.5 148q135 0 242 -59v35q0 113 -80 193.5t-194 80.5h-97q-55 0 -93 39t-38 94.5t38 93.5t93 38h97q225 0 381.5 -158t156.5 -381zM569.5 252q100.5 0 171 71t70.5 173 t-70.5 171.5t-171 69.5t-172 -69.5t-71.5 -170t71.5 -173t172 -72.5z" glyph-name="partialdiff" horiz-adv-x="1157" unicode="∂"/><glyph d="M1077 0h-893q-59 0 -93 47t-13 105l446 1286q29 78 107 78t106 -78l443 -1282q20 -57 -12 -106.5t-91 -49.5zM340 225h578l-287 832z" glyph-name="uni2206" horiz-adv-x="1249" unicode="∆"/><glyph d="M1444 1516q55 0 94 -39t39 -94.5t-39 -95.5t-94 -40h-123v-1503q0 -55 -39 -94t-94 -39t-94 39t-39 94v1503h-469v-1503q0 -55 -40 -94t-95.5 -39t-94.5 39t-39 94v1503h-120q-55 0 -95.5 40t-40.5 95.5t40 94.5t96 39h1247z" glyph-name="product" horiz-adv-x="1628" unicode="∏"/><glyph d="M983 -287h-799q-82 0 -118.5 72t8.5 135l479 711l-477 676q-47 66 -9.5 137.5t117.5 71.5h799q55 0 94 -39t39 -94.5t-39 -94.5t-94 -39h-543l383 -540q51 -76 2 -152l-391 -580h549q55 0 94 -38.5t39 -92.5t-39 -93.5t-94 -39.5z" glyph-name="summation" horiz-adv-x="1157" unicode="∑"/><glyph d="M678 -4q-76 0 -105 74l-276 735h-143q-47 0 -80 33.5t-33 81t32.5 80t80.5 32.5h221q80 0 106 -74l201 -536l416 1026q16 43 60 61.5t87 0t60.5 -61.5t1.5 -86l-523 -1294q-30 -72 -106 -72z" glyph-name="radical" horiz-adv-x="1355" unicode="√"/><glyph d="M1378 963q170 0 292 -126t122 -304.5t-122 -305.5t-292 -127q-123 0 -227 63.5t-225 184.5q-96 -111 -216 -179.5t-235 -68.5q-172 0 -293 127t-121 305.5t121 304.5t293 126q119 0 237.5 -71t213.5 -175q245 246 452 246zM475 334q127 0 301 198q-172 197 -301 197 q-76 0 -128 -57.5t-52 -139t52 -140t128 -58.5zM1378 334q74 0 126 58.5t52 140t-52 139t-126 57.5q-139 0 -303 -197q174 -198 303 -198z" glyph-name="infinity" horiz-adv-x="1843" unicode="∞"/><glyph d="M166 -389q-49 0 -82 32.5t-33 80.5t33 80t85 32t90 40t38 95v1147q0 166 115.5 282t279.5 116q47 0 81 -33t34 -80t-34.5 -80t-92.5 -33t-109 -51t-51 -121v-1147q0 -150 -103.5 -255t-250.5 -105z" glyph-name="integral" horiz-adv-x="847" unicode="∫"/><glyph d="M362 629q-110 0 -137 -19q-41 -16 -83 2.5t-55 60.5t4.5 81t55.5 53q74 33 217.5 32t278.5 -51q102 -27 196.5 -9t144.5 50t92 21.5t65 -46.5t15.5 -78t-44.5 -67q-100 -72 -256 -91t-270 21t-224 40zM367 301q-111 0 -140 -20q-41 -16 -83 2t-54 59t5.5 80t56.5 53 q76 35 216 33t279 -47q194 -47 357 47q35 20 77.5 10t65.5 -47t14.5 -76.5t-45.5 -64.5q-106 -70 -258 -89.5t-266 20.5t-225 40z" glyph-name="approxequal" horiz-adv-x="1234" unicode="≈"/><glyph d="M1008 545q45 0 76.5 -31t31.5 -77t-30.5 -77.5t-77.5 -31.5h-433l-133 -273q-18 -39 -62 -51t-69 4q-39 16 -52 56t5 79l90 185h-161q-47 0 -79 31.5t-32 77.5t31.5 77t79.5 31h272l59 123h-331q-47 0 -79 31.5t-32 76.5t32.5 77t78.5 32h438l125 256q16 35 56 48t77 -6 t50 -56t-3 -72l-84 -170h156q45 0 76.5 -32t31.5 -78t-31.5 -76.5t-76.5 -30.5h-263l-63 -123h326z" glyph-name="notequal" horiz-adv-x="1187" unicode="≠"/><glyph d="M164 586q-74 29 -73 103.5t73 103.5l690 262q47 16 89 -1.5t57 -61.5t-4 -87t-60 -57l-422 -160l422 -158q41 -16 59.5 -58t4.5 -86t-60.5 -60.5t-85.5 -1.5zM82 111q0 47 32.5 79.5t80.5 32.5h708q47 0 80 -32.5t33 -79.5t-33 -79t-80 -32h-708q-47 0 -80 32t-33 79z " glyph-name="lessequal" horiz-adv-x="1087" unicode="≤"/><glyph d="M233 324q-39 -14 -85 2t-60 60t4.5 86t59.5 58l421 158l-421 160q-41 14 -60.5 57t-4.5 87t57 61.5t89 1.5l691 -262q72 -29 72.5 -104t-72.5 -103zM893 0h-709q-47 0 -79.5 31t-32.5 79t32.5 80.5t79.5 32.5h709q47 0 80 -32.5t33 -79.5t-33 -79t-80 -32z" glyph-name="greaterequal" horiz-adv-x="1087" unicode="≥"/><glyph d="M544 0q-62 0 -95 55l-381 645q-37 57 0 115l381 645q33 55 96 55.5t96 -55.5l383 -645q33 -57 0 -115l-383 -645q-35 -55 -97 -55zM293 758l252 -424l252 424l-252 426z" glyph-name="lozenge" horiz-adv-x="1081" unicode="◊"/></font>
</defs>
</svg>
