<?xml version="1.0" standalone="no"?>
<!DOCTYPE svg PUBLIC "-//W3C//DTD SVG 1.1//EN" "http://www.w3.org/Graphics/SVG/1.1/DTD/svg11.dtd">
<svg xmlns="http://www.w3.org/2000/svg"><metadata>This SVG WebFont was generated by YouWorkForThem.
Copyright (c) 2015 by thmbnl. graphic design. All rights reserved</metadata><defs><font horiz-adv-x="1662" id="ywftsvg"><font-face ascent="1638" bbox="-74.973 -516 2400 2036" cap-height="1516" descent="-410" font-family="" font-stretch="normal" font-weight="700" panose-1="0 0 8 0 0 0 0 0 0 0" underline-position="0" underline-thickness="0" unicode-range="U+0020-25CA" units-per-em="2048" x-height="1013"/><missing-glyph d="M831 1638v-2027h-643v2027h643zM676 1503h-336v-67h133v-76h-135v-66h338v66h-135v76h135v67zM541 1241h-203v-211h338v70h-135v141zM473 1171v-71h-67v71h67zM676 975h-338v-66h135v-75h-135v-68h203v143h135v66zM676 854h-68v-133h-270v-70h338v203zM676 606h-203v-112 h68v45h67v-95h-202v162h-68v-229h338v229zM676 256h-338v-229h338v229zM608 188v-94h-202v94h202zM676 -20h-338v-66h143l-143 -96v-68h338v68h-207l141 96h66v66z" horiz-adv-x="1013"/><glyph d="M831 1638v-2027h-643v2027h643zM676 1503h-336v-67h133v-76h-135v-66h338v66h-135v76h135v67zM541 1241h-203v-211h338v70h-135v141zM473 1171v-71h-67v71h67zM676 975h-338v-66h135v-75h-135v-68h203v143h135v66zM676 854h-68v-133h-270v-70h338v203zM676 606h-203v-112 h68v45h67v-95h-202v162h-68v-229h338v229zM676 256h-338v-229h338v229zM608 188v-94h-202v94h202zM676 -20h-338v-66h143l-143 -96v-68h338v68h-207l141 96h66v66z" glyph-name=".notdef" horiz-adv-x="1013"/><glyph glyph-name="glyph1" horiz-adv-x="0"/><glyph glyph-name="glyph2" horiz-adv-x="681"/><glyph glyph-name="space" horiz-adv-x="563" unicode=" "/><glyph d="M233.5 369q-67.5 0 -114.5 48t-47 113v824q0 66 47 114t114.5 48t114.5 -48.5t47 -113.5v-824q0 -66 -47 -113.5t-114.5 -47.5zM383 149.5q0 -61.5 -44 -105.5t-105.5 -44t-105.5 44t-44 105.5t44 105.5t105.5 44t105.5 -44t44 -105.5z" glyph-name="exclam" horiz-adv-x="466" unicode="!"/><glyph d="M111 1157l-45 201q-14 63 27 112.5t95 46.5t86.5 -32t42.5 -70l45 -201q8 -37 -5 -74.5t-42 -58.5q-51 -37 -118.5 -15.5t-85.5 91.5zM467 1157l-47 201q-14 63 29 112.5t95 45.5t86 -32t42 -69l47 -201q10 -37 -4.5 -74.5t-44.5 -58.5q-51 -37 -120 -14.5t-83 90.5z" glyph-name="quotedbl" horiz-adv-x="772" unicode="&quot;"/><glyph d="M1286 879h-160l-43 -228h103q51 0 87 -34.5t36 -86t-36 -87t-87 -35.5h-150l-57 -308q-12 -59 -54 -82.5t-91.5 -15.5t-78 51t-20.5 92l53 263h-243l-60 -308q-10 -57 -57 -81.5t-92 -16.5t-74 51t-18 92l51 263h-123q-49 0 -85 35.5t-36 87t36 86t85 34.5h170l43 228 h-113q-51 0 -86.5 34.5t-35.5 86t35.5 87t86.5 35.5h160l60 295q8 51 50 80t92 19t77.5 -52.5t19.5 -91.5l-47 -250h242l57 295q8 51 51 80t92 19t78 -52.5t19 -91.5l-47 -250h110q49 0 85 -35.5t36 -87t-36 -86t-85 -34.5zM836 651l43 228h-242l-45 -228h244z" glyph-name="numbersign" horiz-adv-x="1447" unicode="#"/><glyph d="M946 488q0 -144 -85 -275t-224 -186v-119q0 -53 -39 -92t-93 -39t-93 39t-39 92v92q-147 25 -240 90q-55 37 -68.5 102.5t28.5 127.5t118 65q44 3 94.5 -21t69.5 -30q53 -23 113.5 -12.5t100.5 59.5t28.5 118.5t-78.5 104.5q-29 14 -133.5 44t-194.5 120 q-129 129 -125 311q2 119 62.5 220.5t166.5 158.5q25 12 58 27v104q0 55 39 93t93 38t93 -37.5t39 -93.5v-73q104 -14 170 -62q94 -72 75.5 -170t-116.5 -125q-51 -12 -140 24t-164 -14.5t-46 -130.5q10 -29 52 -58t222 -89q111 -45 183.5 -152t72.5 -251z" glyph-name="dollar" horiz-adv-x="1009" unicode="$"/><glyph d="M618 66q-25 -47 -74.5 -60.5t-90.5 8.5t-56.5 70.5t6.5 93.5l668 1278q23 43 72 57.5t94 -9.5t58.5 -71t-9.5 -92zM416 805q-148 0 -251.5 104.5t-103.5 252.5t104.5 254t250.5 106t253 -106.5t107 -254.5t-106 -252t-254 -104zM418 1276q-45 0 -79 -34t-34 -81t33 -79.5 t80 -32.5t80.5 32.5t33.5 79.5t-34.5 81t-79.5 34zM1274 0q-148 0 -252 104.5t-104 251.5t104 253t252 106t253 -105.5t105 -253.5t-105 -252t-253 -104zM1275 471q-48 0 -81 -32.5t-33 -80t33 -81t80 -33.5t81 33.5t34 81t-33 80t-81 32.5z" glyph-name="percent" horiz-adv-x="1683" unicode="%"/><glyph d="M561 -18q-207 0 -353.5 145t-146.5 359t160 362q-86 113 -86 254q0 176 125 301t301 125t301 -125t125 -301q0 -129 -69.5 -234.5t-182.5 -154.5l99 -115l51 109q29 57 88.5 77.5t116.5 -7.5t77.5 -87t-6.5 -117l-110 -229l71 -88q41 -49 36 -112.5t-54 -103.5 t-110.5 -37t-104.5 56l-21 25q-137 -102 -307 -102zM561 1221q-49 0 -84 -35t-35 -85t34 -86t85 -36t85 36t34 86t-35 85t-84 35zM367 477q0 -80 53 -133t120 -56.5t128 29.5l-250 295q-51 -55 -51 -135z" glyph-name="ampersand" horiz-adv-x="1226" unicode="&amp;"/><glyph d="M111 1157l-45 201q-14 63 27 112.5t95 46.5t86.5 -32t42.5 -70l45 -201q8 -37 -5 -74.5t-42 -58.5q-51 -37 -118.5 -15.5t-85.5 91.5z" glyph-name="quotesingle" horiz-adv-x="415" unicode="'"/><glyph d="M92 694.5q0 415.5 221 757.5q31 49 87.5 59.5t106.5 -20.5t62.5 -88t-18.5 -105q-176 -274 -176 -607t176 -599q31 -47 17.5 -104t-59.5 -89t-103.5 -21t-92.5 63q-221 338 -221 753.5z" glyph-name="parenleft" horiz-adv-x="624" unicode="("/><glyph d="M252 696q0 322 -178 602q-31 49 -18.5 105.5t61.5 89.5t105.5 20.5t88.5 -61.5q223 -346 223 -744t-223 -767q-33 -53 -91 -63.5t-104 21.5t-58.5 88t18.5 105q176 282 176 604z" glyph-name="parenright" horiz-adv-x="626" unicode=")"/><glyph d="M827 1171q39 0 65 -25.5t26 -63.5t-26 -64.5t-65 -26.5h-127l93 -88q25 -29 26 -64.5t-27 -62.5t-64 -26.5t-62 26.5l-91 88v-127q0 -37 -26.5 -63.5t-63 -26.5t-63.5 26.5t-27 63.5v127l-90 -88q-27 -27 -61.5 -26.5t-63.5 26.5q-27 27 -26.5 64t26.5 63l88 88h-127 q-37 0 -63.5 26.5t-26.5 64.5t26.5 63.5t63.5 25.5h127l-88 91q-29 27 -28.5 63.5t26.5 63.5t63.5 26.5t63.5 -26.5l90 -91v127q0 37 27 64t63.5 27t63 -27t26.5 -64v-127l91 91q27 27 63.5 26.5t63.5 -26.5q25 -27 24.5 -64t-24.5 -63l-93 -91h127z" glyph-name="asterisk" horiz-adv-x="968" unicode="*"/><glyph d="M1008 698q57 0 98 -40t41 -98t-41 -98t-98 -40h-271v-283q0 -57 -41 -98t-98 -41t-97 41t-40 98v283h-271q-57 0 -98 40t-41 98t40 98t99 40h271v258q0 57 40 98.5t97 41.5t98 -40t41 -100v-258h271z" glyph-name="plus" horiz-adv-x="1187" unicode="+"/><glyph d="M295 -127q-14 -68 -84 -90.5t-119 16.5q-68 49 -47 131l45 201q8 41 42 68.5t86 31.5t95 -46t29 -111z" glyph-name="comma" horiz-adv-x="405" unicode=","/><glyph d="M621 457h-392q-66 0 -111.5 46t-45.5 111.5t46 111.5t111 46h392q63 0 110 -46t47 -111.5t-45.5 -111.5t-111.5 -46z" glyph-name="hyphen" horiz-adv-x="849" unicode="-"/><glyph d="M344 146q0 -60 -43 -103t-103 -43t-103.5 43t-43.5 103t43.5 103.5t103.5 43.5t103 -43.5t43 -103.5z" glyph-name="period" horiz-adv-x="395" unicode="."/><glyph d="M266 78q-18 -49 -67 -67.5t-93 -1.5t-65 63.5t-2 93.5l491 1272q18 49 64.5 69.5t93.5 2t68.5 -64.5t1.5 -93z" glyph-name="slash" horiz-adv-x="808" unicode="/"/><glyph d="M603 -12q-210 0 -360.5 149.5t-150.5 360.5v520q0 211 150.5 360.5t360.5 149.5t359.5 -149.5t149.5 -360.5v-520q0 -211 -149.5 -360.5t-359.5 -149.5zM418 1018v-520q0 -76 54 -131.5t130 -55.5t130 55.5t54 131.5v520q0 76 -54 131t-130 55t-130 -55t-54 -131z" glyph-name="zero" horiz-adv-x="1204" unicode="0"/><glyph d="M481 1516q63 0 109.5 -49.5t46.5 -114.5v-1188q0 -68 -48 -116t-115.5 -48t-116 48t-48.5 116v1065h-114q-59 0 -101.5 42t-42.5 100t42 101.5t102 43.5h286z" glyph-name="one" horiz-adv-x="759" unicode="1"/><glyph d="M905 330q70 0 118 -49t48 -117t-48 -116t-118 -48h-639q-96 0 -144 89t15 173l541 664q47 57 39.5 133t-65.5 124t-134 40.5t-121 -61.5t-107.5 -60t-113.5 33q-49 41 -55 105.5t33 111.5q131 160 334.5 180t363.5 -113t180.5 -328.5t-114.5 -363.5l-326 -397h313z" glyph-name="two" horiz-adv-x="1161" unicode="2"/><glyph d="M528 -12q-133 0 -249.5 66.5t-184.5 181.5q-33 59 -16.5 123.5t74 99.5t124 17.5t104.5 -82.5t118 -79t143.5 35t63.5 139q0 51 -29 94.5t-65 59.5t-75.5 20.5t-56.5 8.5q-51 14 -85 59t-34 103t40 104.5t106 50.5q123 6 123 109q0 63 -56.5 93t-110.5 -8t-121 -26 t-105.5 67.5t-27.5 121t66 104.5q96 70 216 77t222.5 -39t172 -149.5t70 -240.5t-77.5 -248q153 -150 153 -359t-147.5 -356t-354.5 -147z" glyph-name="three" horiz-adv-x="1132" unicode="3"/><glyph d="M1194 421.5q0 -63.5 -44 -107.5t-108 -44v-108q0 -68 -48 -115t-114 -47t-114.5 47t-48.5 115v108h-488q-51 2 -87 31t-50 70q-27 76 33 159q6 6 151.5 222.5t296 438.5t158.5 234q66 91 141 91t122.5 -47.5t47.5 -114.5v-781q63 0 107.5 -44t44.5 -107.5zM717 573v324 l-219 -324h219z" glyph-name="four" horiz-adv-x="1275" unicode="4"/><glyph d="M553 1065q223 0 381 -157.5t158 -381t-158 -381t-381 -157.5q-260 0 -426 209q-43 55 -34 121.5t63 108.5t121 33t116 -73t140.5 -71t162 52.5t70.5 152.5t-62.5 155.5t-140.5 62.5t-135 -43t-123.5 -33.5t-109.5 64.5t-29 131l76 518q8 59 55 99.5t106 40.5h455 q68 0 115 -48t47 -116t-47 -116t-115 -48h-315l-19 -123h29z" glyph-name="five" horiz-adv-x="1183" unicode="5"/><glyph d="M1190 516q0 -213 -158 -370.5t-380 -157.5t-380.5 157.5t-158.5 380.5q0 137 61 248l391 660q35 57 100.5 75.5t123 -16.5t74 -100.5t-16.5 -124.5l-125 -209q199 -25 334 -177.5t135 -365.5zM651 313q88 0 150.5 62.5t62.5 149.5t-62.5 150.5t-149.5 63.5t-149.5 -63.5 t-62.5 -150.5t61.5 -149.5t149.5 -62.5z" glyph-name="six" horiz-adv-x="1261" unicode="6"/><glyph d="M238 1188q-70 0 -118 48t-48 115.5t48 116t118 48.5h604q86 0 138 -67t17 -157l-458 -1188q-27 -70 -86.5 -91t-123.5 -3t-91 84t-2 129l370 965h-368z" glyph-name="seven" horiz-adv-x="1069" unicode="7"/><glyph d="M595 -12q-204 0 -348.5 144t-144.5 353t156 355q-90 118 -90 278t125 285t301 125t302 -125t126 -285t-90 -278q156 -144 156 -354t-144.5 -354t-348.5 -144zM595 1221q-50 0 -85 -35t-35 -85t35 -85t85 -35t85 35t35 85t-35 85t-85 35zM594 295q78 0 132 54t54 131 t-54 132.5t-131 55.5t-131 -55.5t-54 -132.5t53 -131t131 -54z" glyph-name="eight" horiz-adv-x="1189" unicode="8"/><glyph d="M72 1001q0 213 157.5 371t381.5 158t381 -156.5t157 -382.5q0 -154 -57 -248l-396 -663q-35 -59 -99.5 -75.5t-122.5 17.5t-74.5 100t18.5 124l123 211q-199 27 -334 179t-135 365zM610 1204q-88 0 -150.5 -62.5t-62.5 -150.5t62.5 -150.5t152.5 -62.5t151.5 63.5 t61.5 150.5t-63.5 149.5t-151.5 62.5z" glyph-name="nine" horiz-adv-x="1200" unicode="9"/><glyph d="M328 886.5q0 -57.5 -41 -98t-98.5 -40.5t-97.5 40.5t-40 98t40 97.5t97.5 40t98.5 -40t41 -97.5zM328 137.5q0 -57.5 -41 -97.5t-98.5 -40t-97.5 40t-40 97.5t40 98t97.5 40.5t98.5 -40.5t41 -98z" glyph-name="colon" horiz-adv-x="389" unicode=":"/><glyph d="M358 878q0 -60 -43 -103.5t-103 -43.5t-103 43.5t-43 103.5t43 103t103 43t103 -43t43 -103zM305 -127q-14 -68 -83.5 -90.5t-119.5 16.5q-68 49 -47 131l45 201q8 41 42 68.5t86 31.5t95.5 -46t28.5 -111z" glyph-name="semicolon" horiz-adv-x="419" unicode=";"/><glyph d="M82 512q0 78 63 119l592 373q47 33 104.5 19.5t87.5 -62.5t16.5 -104.5t-60.5 -90.5l-404 -254l404 -252q47 -35 60 -90t-17.5 -106.5t-88 -62.5t-102.5 19l-592 375q-63 39 -63 117z" glyph-name="less" horiz-adv-x="999" unicode="&lt;"/><glyph d="M1038 604h-817q-57 0 -98 40t-41 97.5t41 98.5t98 41h817q57 0 98.5 -41t41.5 -98.5t-41.5 -97.5t-98.5 -40zM1038 262h-817q-57 0 -98 41t-41 98.5t41 98.5t98 41h817q57 0 98.5 -41t41.5 -98.5t-41.5 -98.5t-98.5 -41z" glyph-name="equal" horiz-adv-x="1249" unicode="="/><glyph d="M268 20q-47 -33 -105.5 -22.5t-90.5 63.5t-19 110.5t62 88.5l403 252l-403 254q-47 35 -59.5 90t16.5 107q33 49 88 60t108 -19l586 -373q63 -41 62 -118t-62 -118z" glyph-name="greater" horiz-adv-x="999" unicode=">"/><glyph d="M637 524q0 -66 -47 -114t-114 -48t-115 48.5t-48 113.5v176q0 102 27 146q47 78 137 78q55 0 95 38.5t40 102.5t-54 101.5t-117.5 22.5t-86.5 -79q-27 -63 -89.5 -89t-124.5 1t-87.5 89.5t0.5 123.5q55 129 170 205t254 76q188 0 323.5 -134.5t135.5 -322.5 q0 -147 -83 -264t-216 -166v-105zM637 147.5q0 -61.5 -43 -104.5t-104.5 -43t-104.5 43t-43 104.5t43 105.5t104.5 44t104.5 -44t43 -105.5z" glyph-name="question" horiz-adv-x="997" unicode="?"/><glyph d="M831.5 1528q317.5 0 544 -226.5t226.5 -543.5q0 -193 -86 -352q-47 -88 -134.5 -133.5t-185.5 -30.5q-78 8 -140.5 55t-97.5 117q-72 -33 -151 -33q-152 0 -258.5 106.5t-106.5 258.5t106.5 259t258.5 107q80 0 147 -31q38 51 94 51t92 -35.5t36 -84.5v-469 q2 -23 17 -40.5t38 -19.5q57 -5 96 99t18.5 231t-79 234.5t-175 178t-260.5 70.5q-217 2 -370.5 -158.5t-153.5 -378.5t153.5 -372t370.5 -154q51 1 111 13t104 -14.5t54 -76t-26.5 -108.5t-242.5 -59q-317 0 -543.5 226t-226.5 543.5t226.5 544t544 226.5zM808 627 q50 0 86 34.5t36 84.5t-36 86t-86 36t-86 -35.5t-36 -85.5t36 -85t86 -35z" glyph-name="at" unicode="@"/><glyph d="M1442 229q27 -61 3 -122.5t-85 -92.5q-49 -31 -116.5 -7t-98.5 91l-72 162h-627l-73 -162q-31 -68 -97.5 -89t-117.5 5q-61 27 -86 90.5t4 124.5l530 1186q26 59 90 86t125 1t90 -87zM594 586h332l-166 372z" glyph-name="A" horiz-adv-x="1527" unicode="A"/><glyph d="M1032 456q0 -188 -135 -322t-326 -134h-317q-66 0 -114 48t-48 114v1192q0 66 48 114t114 48h274q190 0 325.5 -134.5t135.5 -326.5q0 -146 -88 -271q131 -140 131 -328zM418 1188v-266h110q55 0 95.5 38.5t40.5 94t-40 94.5t-96 39h-110zM571 328q55 0 95.5 39t40.5 94 t-40 94t-96 39h-153v-266h153z" glyph-name="B" horiz-adv-x="1093" unicode="B"/><glyph d="M821 -12q-317 0 -543.5 226t-226.5 543.5t226.5 544t543.5 226.5q262 0 469 -160q53 -41 62.5 -107.5t-31.5 -121.5q-43 -53 -109.5 -61.5t-119.5 32.5q-121 92 -271 92q-184 0 -314 -131t-130 -313.5t130 -313.5t314 -131q147 0 269 93q55 41 121.5 31.5t107.5 -62.5 t31.5 -121t-62.5 -109q-205 -157 -467 -157z" glyph-name="C" horiz-adv-x="1425" unicode="C"/><glyph d="M590 1516q313 0 535.5 -222.5t222.5 -536t-222.5 -535.5t-535.5 -222h-340q-66 0 -112 48t-46 116v1188q0 68 48 116t116 48h334zM590 328q176 0 302 126t126 304t-126 304t-302 126h-170v-860h170z" glyph-name="D" horiz-adv-x="1398" unicode="D"/><glyph d="M766 328q66 0 114 -48t48 -116t-48.5 -116t-113.5 -48h-510q-68 0 -116 48t-48 114v1192q0 66 48 114t116 48h510q66 0 114 -48t48 -116t-48.5 -116t-113.5 -48h-346v-287h328q59 0 101 -42t42 -101.5t-42 -101.5t-101 -42h-328v-286h346z" glyph-name="E" horiz-adv-x="999" unicode="E"/><glyph d="M748 901q59 0 101 -42t42 -101.5t-42 -101.5t-101 -42h-328v-452q0 -66 -48 -114t-116 -48t-116 48t-48 114v1192q0 66 48 114t114 48h512q66 0 114 -48t48 -116t-48.5 -116t-113.5 -48h-346v-287h328z" glyph-name="F" horiz-adv-x="958" unicode="F"/><glyph d="M810 -12q-316 0 -533 226q-216 226 -216 543.5t225.5 544t544.5 226.5q195 0 369 -92q59 -33 78.5 -98.5t-13 -125t-98 -79t-123.5 13.5q-104 55 -213 55q-182 0 -312 -131t-130 -316t123 -313t303 -129q139 0 247.5 82t151.5 215h-374q-59 0 -101.5 42t-42.5 100 t43 101.5t101 43.5h569q68 -2 114 -52t42 -120q-12 -311 -224 -518q-215 -219 -531 -219z" glyph-name="G" horiz-adv-x="1636" unicode="G"/><glyph d="M1019 1516q67 0 115 -48.5t48 -113.5v-1192q0 -66 -49 -114t-115 -48t-113 48t-47 114v452h-442v-452q0 -66 -47 -114t-114 -48t-115 48t-48 114v1192q0 66 48 114t115 48t114 -48.5t47 -113.5v-453h442v453q0 66 47 114t114 48z" glyph-name="H" horiz-adv-x="1263" unicode="H"/><glyph d="M254 0q-68 0 -115 48t-47 114v1192q0 66 47 114t115 48t115 -48.5t47 -113.5v-1192q0 -66 -47 -114t-115 -48z" glyph-name="I" horiz-adv-x="497" unicode="I"/><glyph d="M225 -12q-68 0 -116 48t-48 115.5t48.5 115.5t112.5 48t99 45.5t35 102.5v889q0 68 49 116t115 48t114 -48.5t48 -115.5v-889q0 -199 -125 -330q-129 -145 -332 -145z" glyph-name="J" horiz-adv-x="774" unicode="J"/><glyph d="M418 162q0 -66 -48 -114t-115 -48t-115 48t-48 114v1192q0 66 48 114t115 48t115 -48.5t48 -113.5v-307l336 385q47 51 113.5 55t117.5 -40t56.5 -111.5t-40.5 -118.5l-399 -457l434 -486q43 -51 39 -118.5t-55 -112.5t-116.5 -42t-112.5 54l-373 420v-313z" glyph-name="K" horiz-adv-x="1126" unicode="K"/><glyph d="M766 0h-512q-66 0 -114 48t-48 116v1188q0 68 48 116t116 48t116 -48.5t48 -115.5v-1024h346q68 0 116 -48.5t48 -116t-48 -115.5t-116 -48z" glyph-name="L" horiz-adv-x="966" unicode="L"/><glyph d="M1440 1516q68 0 116 -48.5t48 -115.5v-1188q0 -68 -49 -116t-117 -48t-116 48t-48 116v579l-297 -608q-41 -82 -130 -82t-128 82l-299 608v-579q0 -68 -48 -116t-116 -48t-116 48t-48 116v1188q0 68 48 116t114 48q104 0 170 -127q4 -8 131.5 -271.5t292.5 -597.5 q245 508 332.5 683t91.5 186q62 127 168 127z" glyph-name="M" horiz-adv-x="1685" unicode="M"/><glyph d="M1126.5 1516q67.5 0 115.5 -48.5t48 -113.5v-1190q0 -111 -104.5 -150t-181.5 37q-14 15 -43 59t-269.5 395t-271.5 394v-735q0 -68 -48 -116t-116 -48t-116 48t-48 116v1190q0 66 48 114t119 48t120 -62t586 -844v744q0 66 47 114t114.5 48z" glyph-name="N" horiz-adv-x="1372" unicode="N"/><glyph d="M832 1528q318 0 544 -225.5t226 -545t-226 -544.5t-544 -225t-544.5 225t-226.5 544.5t226.5 545t544.5 225.5zM828 1202q-183 0 -311 -130t-128 -314.5t128 -314.5t311 -130t314.5 132.5t131.5 312.5t-131.5 312t-314.5 132z" glyph-name="O" unicode="O"/><glyph d="M573 1516q195 0 333 -137.5t138 -332t-138 -333t-333 -138.5h-153v-411q0 -68 -48 -116t-117 -48t-116 48t-47 116v1188q0 68 47 116t117 48h317zM573 903q59 0 101.5 41.5t42.5 101.5t-42 101t-102 41h-153v-285h153z" glyph-name="P" horiz-adv-x="1075" unicode="P"/><glyph d="M1544 144.5q0 -58.5 -41 -101.5t-101.5 -44t-105.5 44l-59 61q-182 -119 -406 -118q-319 0 -544.5 225t-225.5 545t225.5 545t545 225t545 -224.5t225.5 -543.5q0 -258 -154 -461l55 -55q41 -39 41 -97.5zM831 313q90 0 164 33l-41 41q-41 41 -41 99.5t42 100.5t100.5 41 t103.5 -42l53 -51q61 96 62 223q0 182 -129 311t-315 129t-314.5 -127t-128.5 -314t128 -315.5t316 -128.5z" glyph-name="Q" unicode="Q"/><glyph d="M420 575v-411q0 -68 -48 -116t-116 -48t-116 48t-48 116v1188q0 68 48 116t114 48h319q195 0 332 -137.5t137 -331.5q0 -133 -66.5 -244t-178.5 -170l227 -385q33 -59 16.5 -124t-75.5 -99q-53 -35 -120 -21t-104 76l-290 495h-31zM717 1046q0 60 -42 101t-102 41h-153 v-285h153q59 0 101.5 41.5t42.5 101.5z" glyph-name="R" horiz-adv-x="1077" unicode="R"/><glyph d="M836 160q-94 -104 -281 -162.5t-422 86.5q-55 35 -67.5 102.5t27.5 129.5t120 67q45 3 96 -22t68 -31q131 -43 211 45q49 55 35.5 124.5t-80.5 102.5q-25 14 -137 49.5t-193 116.5q-131 131 -127 313q2 119 64 220.5t172 162.5t242 62.5t249 -66.5q57 -35 75.5 -103.5 t-16.5 -121.5q-74 -117 -235 -53q-92 39 -170 -13.5t-49 -128.5q24 -63 138 -99t138 -48q109 -55 178.5 -159.5t79.5 -225.5q17 -203 -116 -348z" glyph-name="S" horiz-adv-x="1015" unicode="S"/><glyph d="M848 1516q70 0 118 -48.5t48 -116t-48 -115.5t-118 -48h-158v-1024q0 -68 -48 -116t-115 -48t-114.5 48t-47.5 116v1024h-158q-70 0 -118 48t-48 115.5t48 116t118 48.5h641z" glyph-name="T" horiz-adv-x="1044" unicode="T"/><glyph d="M588 -12q-209 0 -357.5 148.5t-148.5 357.5v860q0 66 48 114t115 48t115 -48.5t48 -113.5v-860q0 -74 52 -126.5t128 -52.5t128 52.5t52 126.5v860q0 66 48 114t115 48t115 -48.5t48 -113.5v-860q0 -209 -148.5 -357.5t-357.5 -148.5z" glyph-name="U" horiz-adv-x="1165" unicode="U"/><glyph d="M686 0q-51 0 -92 28.5t-59 75.5l-472 1186q-27 63 0 124.5t91 87.5t126 -0.5t87 -90.5l319 -807l320 807q27 63 88.5 90t124.5 1t89.5 -87t2.5 -125l-471 -1186q-20 -47 -61.5 -75.5t-92.5 -28.5z" glyph-name="V" horiz-adv-x="1363" unicode="V"/><glyph d="M885 1487q47 0 86 -30t53 -77l176 -665l189 676q20 70 82.5 104t132.5 15t105.5 -81.5t14.5 -132.5l-327 -1169q-23 -78 -87.5 -108.5t-127.5 -12.5q-96 29 -129 154t-168 631q-135 -506 -162 -615q-37 -145 -133 -170q-66 -16 -129.5 12.5t-85.5 108.5l-328 1169 q-18 70 16.5 132.5t104.5 81.5t131 -15.5t82 -103.5l190 -676l177 665q12 47 51 77t86 30z" glyph-name="W" horiz-adv-x="1761" unicode="W"/><glyph d="M829 756l349 -502q39 -55 26.5 -117.5t-62.5 -103.5t-121 -31t-110 68l-282 403l-283 -403q-43 -59 -110.5 -70.5t-117.5 31.5t-62.5 105.5t26.5 117.5l348 502l-348 501q-39 55 -27.5 121t65.5 106t120.5 28.5t105.5 -66.5l283 -406l282 406q39 55 106 66.5t121 -28.5 t66.5 -105.5t-26.5 -121.5z" glyph-name="X" horiz-adv-x="1249" unicode="X"/><glyph d="M758 162q0 -66 -48 -114t-116 -48t-115 48t-47 114v594l-350 501q-39 55 -27.5 121t66.5 106t120.5 28.5t104.5 -66.5l248 -354l248 354q39 55 104.5 66.5t121.5 -27.5t67.5 -105.5t-27.5 -122.5l-350 -501v-594z" glyph-name="Y" horiz-adv-x="1177" unicode="Y"/><glyph d="M1044 328q68 0 116 -48t48 -116t-48 -116t-116 -48h-829q-49 0 -98 35t-60.5 100.5t27.5 122.5l666 952h-545q-63 0 -108.5 45t-45.5 108.5t45 108t109 44.5h835q62 0 108 -36t57.5 -100.5t-25.5 -119.5l-652 -932h516z" glyph-name="Z" horiz-adv-x="1251" unicode="Z"/><glyph d="M424 -287h-188q-59 0 -101.5 43t-42.5 101v1515q0 57 42 100.5t102 43.5h188q59 0 101 -43t42 -100.5t-42 -100.5t-101 -43h-45v-1229h45q59 0 101 -43t42 -100.5t-42 -100.5t-101 -43z" glyph-name="bracketleft" horiz-adv-x="628" unicode="["/><glyph d="M700 8q-31 -18 -84 -0.5t-73 70.5l-494 1274q-18 47 2.5 93t67.5 64.5t94 -2t66 -69.5l491 -1272q16 -47 -4.5 -93.5t-65.5 -64.5z" glyph-name="backslash" horiz-adv-x="808" unicode="\"/><glyph d="M393 -287h-188q-57 0 -100.5 43t-43.5 100.5t43 100.5t101 43h45v1229h-45q-57 0 -100.5 43t-43.5 100.5t43 100.5t101 43h188q57 0 100.5 -43t43.5 -101v-1515q0 -57 -43.5 -100.5t-100.5 -43.5z" glyph-name="bracketright" horiz-adv-x="628" unicode="]"/><glyph d="M996.5 553q-15.5 -53 -64.5 -82t-102.5 -14.5t-86.5 69.5l-213 377l-208 -377q-29 -51 -83.5 -67.5t-105.5 11.5t-66.5 82t11.5 105l330 607q42 72 126 72t119 -72l332 -607q27 -51 11.5 -104z" glyph-name="asciicircum" horiz-adv-x="1062" unicode="^"/><glyph d="M1018 -231h-871q-49 0 -82.5 33.5t-33.5 82.5t33.5 82t82.5 33h871q47 0 82 -33t35 -82t-35 -82.5t-82 -33.5z" glyph-name="underscore" horiz-adv-x="1165" unicode="_"/><glyph d="M190 1604l-188 100q-45 23 -59.5 71t9.5 93t72 59.5t93 -8.5l188 -100q45 -23 59.5 -72t-9.5 -96t-75 -59.5t-90 12.5z" glyph-name="grave" horiz-adv-x="430" unicode="`"/><glyph d="M950 1024q68 0 114 -45t46 -109v-716q0 -63 -45 -108.5t-110 -45.5t-113 49q-125 -66 -256 -65q-217 0 -371 153.5t-154 370.5t154 370.5t371 153.5q127 0 252 -65q44 57 112 57zM586 309q82 0 140 58.5t58 140.5t-58 140.5t-140 58.5t-140.5 -58.5t-58.5 -140.5 t58.5 -140.5t140.5 -58.5z" glyph-name="a" horiz-adv-x="1191" unicode="a"/><glyph d="M606 1032q217 0 370.5 -153.5t153.5 -370.5t-153.5 -370.5t-370.5 -153.5q-135 0 -256 65q-46 -49 -112 -49t-111 45t-45 111v1036q0 61 45 106t106 48h17q66 0 112 -47.5t46 -114.5v-191q94 39 198 39zM606 309q82 0 140.5 58.5t58.5 140.5t-58.5 140.5t-140.5 58.5 t-140 -58.5t-58 -140.5t58 -140.5t140 -58.5z" glyph-name="b" horiz-adv-x="1161" unicode="b"/><glyph d="M586 -16q-217 0 -371 153.5t-154 370.5t154 370.5t371 153.5q180 0 319 -108q53 -41 62.5 -107.5t-31.5 -120t-108.5 -62.5t-121.5 32t-128 41t-132.5 -58.5t-58.5 -140.5t58.5 -140.5t133.5 -58.5t128 41t120.5 32t108.5 -62.5t31.5 -121t-62.5 -106.5 q-139 -108 -319 -108z" glyph-name="c" horiz-adv-x="1019" unicode="c"/><glyph d="M31 508q0 217 153.5 370.5t370.5 153.5q100 0 199 -39v191q0 68 46 115t113 47h15q61 -2 106 -47.5t45 -108.5v-1036q0 -63 -45.5 -108.5t-111.5 -45.5t-111 49q-121 -66 -256 -65q-217 0 -370.5 153.5t-153.5 370.5zM356 508q0 -82 57.5 -140.5t141.5 -58.5t141.5 58.5 t57.5 140.5t-57.5 140.5t-141.5 58.5t-141.5 -58.5t-57.5 -140.5z" glyph-name="d" horiz-adv-x="1161" unicode="d"/><glyph d="M915 389h-544q66 -100 180.5 -121.5t210.5 35.5q49 31 105.5 15.5t84.5 -65.5t14 -106.5t-63 -85.5q-133 -77 -298 -77t-299 85t-197 218q-47 96 -48.5 211.5t41.5 214.5q57 137 186.5 228t311.5 91t329.5 -131t172.5 -328q8 -88 -43 -136t-144 -48zM582 774 q-74 0 -134.5 -45t-74.5 -106h418q-14 61 -74.5 106t-134.5 45z" glyph-name="e" horiz-adv-x="1153" unicode="e"/><glyph d="M496 844q59 0 101 -42t42 -101.5t-42 -100.5t-101 -41h-121v-397q0 -66 -47 -114t-115 -48t-115 48t-47 114v762q0 176 125 301t301 125q68 0 115 -49t47 -115t-47.5 -114t-101.5 -48t-84.5 -29.5t-30.5 -70.5v-80h121z" glyph-name="f" horiz-adv-x="679" unicode="f"/><glyph d="M947 1030q71 0 117 -45t46 -111v-780q0 -215 -153.5 -367.5t-368.5 -152.5q-117 0 -221 49q-57 27 -80 88.5t4 119.5t89 80.5t120 -5.5q72 -39 161 -7.5t123 124.5q-96 -39 -198 -39q-217 2 -371 154.5t-154 369.5t154 370.5t371 153.5q131 0 243 -61q47 59 118 59z M585 313q81 0 138 56.5t57 138.5t-57 139.5t-138 57.5t-138.5 -57.5t-57.5 -139.5t57.5 -138.5t138.5 -56.5z" glyph-name="g" horiz-adv-x="1191" unicode="g"/><glyph d="M537 1036q188 0 321 -133t133 -321v-418q0 -68 -48 -116t-115.5 -48t-115.5 48t-48 116v418q0 53 -37 90t-89 37t-89 -38t-37 -89v-418q0 -68 -49 -116t-117 -48t-116 48t-48 116v1034q0 70 48 118t117 48t117 -48t48 -118v-178q66 16 125 16z" glyph-name="h" horiz-adv-x="1021" unicode="h"/><glyph d="M385 1222.5q0 -57.5 -41 -99.5t-98.5 -42t-99.5 41.5t-42 99.5t42 99t99.5 41t98.5 -41t41 -98.5zM245.5 0q-67.5 0 -115.5 48t-48 116v708q0 68 48 116t115.5 48t116 -48t48.5 -116v-708q0 -68 -48.5 -116t-116 -48z" glyph-name="i" horiz-adv-x="481" unicode="i"/><glyph d="M532 1222.5q0 -57.5 -41 -98.5t-99 -41t-99 41t-41 98.5t41 98.5t98.5 41t99 -41t41.5 -98.5zM227 88v782q0 68 48.5 117t116 49t115.5 -49t48 -117v-782q0 -141 -66.5 -261t-185.5 -192q-49 -33 -119.5 -19t-107.5 72t-20.5 124.5t75.5 101.5q96 61 96 174z" glyph-name="j" horiz-adv-x="636" unicode="j"/><glyph d="M410 164q0 -68 -48 -116t-116 -48t-116 48t-48 116v1030q0 70 48 118t117 48t116 -48t47 -118v-426l184 217q45 53 111.5 58.5t118.5 -38.5t58.5 -113t-38.5 -120l-219 -260l227 -240q47 -49 45 -115.5t-50 -114.5t-116.5 -47t-116.5 52l-204 213v-96z" glyph-name="k" horiz-adv-x="927" unicode="k"/><glyph d="M245.5 0q-67.5 0 -115.5 48t-48 116v1034q0 68 48 116t115.5 48t116 -48t48.5 -116v-1034q0 -68 -48.5 -116t-116 -48z" glyph-name="l" horiz-adv-x="471" unicode="l"/><glyph d="M1123 1034q173 0 306.5 -132t133.5 -318v-420q0 -68 -49.5 -116t-115 -48t-114.5 48t-49 116v420q0 51 -36 88t-88 37t-89 -37t-37 -88v-420q0 -68 -48 -116t-115 -48t-116 48t-49 116v420q0 51 -36.5 88t-88.5 37t-88 -37t-36 -88v-420q0 -68 -49 -116t-115 -48t-114 48 t-48 116v704q0 66 45 111t105 45t102 -37q90 47 198 47q160 0 289 -104q129 104 302 104z" glyph-name="m" horiz-adv-x="1624" unicode="m"/><glyph d="M532 1034q186 0 318.5 -132t132.5 -318v-422q0 -66 -47 -114t-114.5 -48t-116 48t-48.5 114v422q0 51 -35.5 88t-89 37t-90 -37t-36.5 -88v-422q0 -66 -47.5 -114t-115 -48t-114.5 48t-47 114v706q0 66 45 111t103 45t104 -35q94 45 198 45z" glyph-name="n" horiz-adv-x="1044" unicode="n"/><glyph d="M586 1032q217 0 370.5 -153.5t153.5 -370.5t-153.5 -370.5t-370.5 -153.5t-371 153.5t-154 370.5t154 370.5t371 153.5zM586 707q-82 0 -140.5 -58.5t-58.5 -140.5t58.5 -140.5t140.5 -58.5t140 58.5t58 140.5t-58 140.5t-140 58.5z" glyph-name="o" horiz-adv-x="1171" unicode="o"/><glyph d="M1130 516q0 -217 -153.5 -370.5t-370.5 -153.5q-102 0 -198 39v-191q0 -66 -47.5 -114t-114.5 -48h-15q-61 4 -105 48.5t-44 107.5v1036q0 63 45 108.5t112 45.5t111 -49q121 66 256 65q217 0 370.5 -153.5t153.5 -370.5zM805 516q0 82 -58.5 140.5t-140.5 58.5 t-140 -58.5t-58 -140.5t58 -140.5t140 -58.5t140.5 58.5t58.5 140.5z" glyph-name="p" horiz-adv-x="1161" unicode="p"/><glyph d="M555 -8q-217 0 -370.5 153.5t-153.5 370.5t153.5 370.5t370.5 153.5q135 0 256 -65q45 49 111 49t111.5 -45t45.5 -109v-1036q0 -61 -45 -106t-106 -50h-15q-68 0 -113.5 47.5t-45.5 114.5v191q-99 -39 -199 -39zM555 715q-84 0 -141.5 -58.5t-57.5 -140.5t57.5 -140.5 t141.5 -58.5t141.5 58.5t57.5 140.5t-57.5 140.5t-141.5 58.5z" glyph-name="q" horiz-adv-x="1161" unicode="q"/><glyph d="M406 580v-418q0 -68 -47.5 -115t-115 -47t-114.5 47t-47 115v708q0 63 45 108.5t105 45.5t106 -39q88 45 217 45q68 -2 113 -52t42 -117t-53.5 -110.5t-112.5 -45.5t-100 -38t-38 -87z" glyph-name="r" horiz-adv-x="739" unicode="r"/><glyph d="M463 754q-96 31 -107 -19q-4 -18 19.5 -37.5t75.5 -29.5q94 -18 163 -95q70 -72 86.5 -179t-24.5 -198t-126.5 -147.5t-175.5 -61.5t-180 19.5t-133 79.5q-59 80 -14 167t141 83q27 -2 78 -22.5t72 -20.5q55 -4 64.5 42t-44.5 60q-106 33 -173.5 79t-104.5 122t-29 153.5 t53 139.5q74 98 199 131t240 -12q68 -27 99.5 -82.5t-1.5 -124.5q-53 -90 -178 -47z" glyph-name="s" horiz-adv-x="784" unicode="s"/><glyph d="M526 328q68 0 116 -48.5t48 -116t-48 -115.5t-116 -48h-30q-178 0 -296 124t-118 304v758q0 68 48 116t115.5 48t116 -48.5t48.5 -115.5v-162h149q59 0 101 -42t42 -101.5t-42 -100.5t-101 -41h-149v-311q0 -41 22.5 -70.5t63.5 -29.5h30z" glyph-name="t" horiz-adv-x="733" unicode="t"/><glyph d="M534.5 -16q-186.5 0 -319.5 133t-133 319v426q0 68 47 115t116 47t116 -48t47 -114v-426q0 -51 37.5 -89t89 -38t89.5 38t38 89v426q0 66 47 114t115 48t115.5 -47t47.5 -115v-426q0 -186 -133 -319t-319.5 -133z" glyph-name="u" horiz-adv-x="1048" unicode="u"/><glyph d="M502 0q-49 0 -91 28.5t-61 73.5l-287 697q-27 63 0 123.5t89 89.5t126 1t89 -91l135 -326l133 326q29 66 90 91t123 -3t89.5 -87t0.5 -124l-287 -697q-18 -47 -59 -74.5t-90 -27.5z" glyph-name="v" horiz-adv-x="993" unicode="v"/><glyph d="M1096 0q-45 0 -86 22.5t-60 65.5l-155 385l-158 -385q-37 -88 -131 -88q-125 0 -166 100l-287 703q-27 61 0 122.5t89 88.5t124 1t86 -89l160 -391l150 364q37 88 132 88t132 -88l149 -364l160 391q25 63 87 88.5t123.5 -1t88.5 -88t0 -122.5l-287 -703 q-41 -100 -151 -100z" glyph-name="w" horiz-adv-x="1576" unicode="w"/><glyph d="M928 268q43 -53 36.5 -118.5t-56.5 -109.5t-118.5 -40t-111.5 57l-170 203l-168 -203q-45 -53 -113.5 -58t-117.5 41t-55.5 110.5t36.5 117.5l207 246l-207 248q-43 51 -37 118.5t57.5 110.5t118 37t111.5 -57l168 -203l170 203q43 51 110.5 57t118.5 -37t57.5 -109.5 t-36.5 -119.5l-207 -248z" glyph-name="x" horiz-adv-x="1007" unicode="x"/><glyph d="M180 -389q-55 0 -103 37t-47 102t42.5 106.5t105.5 40.5t118 33.5t81 96.5l31 71l-291 705q-25 63 2 124.5t89 88.5t124.5 0t87.5 -88l141 -344l139 344q29 63 89.5 89t124.5 -1t90 -88.5t0 -124.5l-316 -774q-55 -137 -96 -201q-63 -98 -174 -157.5t-238 -59.5z" glyph-name="y" horiz-adv-x="1077" unicode="y"/><glyph d="M799 326q68 0 116 -49t48 -115t-48.5 -114t-115.5 -48h-582q-66 0 -114 47t-49 111t38 110l375 451h-262q-63 0 -108.5 44t-45.5 107.5t45 108.5t109 45h592q61 0 109 -41t54.5 -108.5t-36.5 -118.5l-361 -430h236z" glyph-name="z" horiz-adv-x="1003" unicode="z"/><glyph d="M762 0q57 0 100 -43t43 -102t-42 -100.5t-101 -41.5h-21q-164 0 -278.5 115t-114.5 278v252q0 47 -32.5 79t-77.5 32h-33q-63 0 -104.5 42t-41.5 101.5t41 101.5t105 42h33q45 0 77.5 31.5t32.5 78.5v252q0 164 116 281t277 117h21q57 0 100 -43t43 -103t-42 -100.5 t-101 -40.5h-21q-43 0 -74.5 -33t-31.5 -78v-252q0 -139 -94 -254q94 -115 94 -254v-252q0 -43 31.5 -74.5t74.5 -31.5h21z" glyph-name="braceleft" horiz-adv-x="946" unicode="{"/><glyph d="M214 -389q-50 0 -86 35t-36 88v1659q0 53 36 88t86 35t87 -36t37 -87v-1659q0 -51 -37 -87t-87 -36z" glyph-name="bar" horiz-adv-x="430" unicode="|"/><glyph d="M184 0h21q43 0 74.5 31.5t31.5 74.5v252q0 139 95 254q-94 115 -95 254v252q0 45 -31.5 78t-74.5 33h-21q-59 0 -101 41t-42 100t43 102.5t100 43.5h21q162 0 276.5 -117t114.5 -281v-252q0 -47 31.5 -78.5t79.5 -31.5h32q61 0 102.5 -42t41.5 -101.5t-40 -101.5 t-104 -42h-32q-47 0 -79 -31.5t-32 -79.5v-252q0 -164 -114.5 -278.5t-276.5 -114.5h-21q-59 0 -101 40.5t-42 100.5t43 103t100 43z" glyph-name="braceright" horiz-adv-x="946" unicode="}"/><glyph d="M221 213q-66 8 -106.5 59.5t-32.5 116.5q14 104 86 208.5t190 158.5q281 127 617 -103q287 -203 385 56q63 166 201 139q63 -12 98 -70.5t16 -122.5q-55 -193 -183 -300t-312.5 -102t-382.5 138q-63 43 -128 68.5t-152 14t-127.5 -143.5t-168.5 -117z" glyph-name="asciitilde" horiz-adv-x="1755" unicode="~"/><glyph d="M86 1366q0 61 44 105.5t105.5 44.5t105.5 -44.5t44 -105.5t-44 -105t-105.5 -44t-105.5 44t-44 105zM235 0q-67 0 -115 48t-48 114v823q0 66 48 114t115 48t114.5 -48t47.5 -114v-823q0 -66 -47.5 -114t-114.5 -48z" glyph-name="exclamdown" horiz-adv-x="468" unicode="¡"/><glyph d="M739 -102q0 -57 -37.5 -96.5t-93 -39.5t-95.5 39t-40 97v102q-178 35 -295 180.5t-117 331.5t117 330.5t295 181.5v86q0 57 40 96t95.5 39t93 -39t37.5 -96v-94q88 -29 168 -84q53 -45 62.5 -112.5t-28.5 -117.5t-94 -63.5t-108 10.5v-276q51 25 106.5 10.5t88.5 -61.5 q43 -51 35 -118t-62 -112q-72 -51 -168 -84v-110zM387 514q0 -104 86 -168v332q-86 -60 -86 -164z" glyph-name="cent" horiz-adv-x="1021" unicode="¢"/><glyph d="M1024 588q63 0 108.5 -45t45.5 -109v-31q0 -172 -123 -287.5t-297 -115.5h-527q-63 0 -108 45t-45 108.5t45 108.5t108 45h123v215q0 45 -22 84h-135q-51 0 -88 37t-37 82t24.5 78t63.5 45q-123 203 -10 438q57 111 161.5 175.5t236.5 66.5t254 -60.5t193 -177.5 q35 -53 20.5 -116.5t-68.5 -96.5t-116.5 -18.5t-92.5 63.5t-81 75t-117 23t-108 -59.5t-22 -120.5t127 -186h237q51 0 87 -37t36 -87t-36 -87t-87 -37h-121q4 -27 9 -80v-219h96q55 0 83.5 29t28.5 67v31q0 63 45.5 108.5t108.5 45.5z" glyph-name="sterling" horiz-adv-x="1228" unicode="£"/><glyph d="M977 756h-217v-68h217q59 0 100 -41t41 -100.5t-41 -101.5t-100 -42h-217v-241q0 -66 -48 -114t-116 -48t-116 48t-48 114v241h-219q-59 0 -100 42t-41 101.5t42 100.5t99 41h219v68h-219q-59 0 -100 42t-41 101t42 100t99 41h23l-154 222q-39 55 -27.5 120.5t66.5 105.5 t121.5 28.5t105.5 -66.5l246 -356l250 356q39 55 104.5 66.5t122.5 -27.5q55 -41 66.5 -106.5t-27.5 -120.5l-154 -222h21q59 0 100 -41t41 -100t-41 -101t-100 -42z" glyph-name="yen" horiz-adv-x="1181" unicode="¥"/><glyph d="M595 1532q120 0 224 -64q55 -35 71.5 -96t-16.5 -117q-35 -55 -97.5 -72.5t-118.5 17.5t-124.5 7.5t-70.5 -91.5q-2 -39 33.5 -69.5t91.5 -40.5q176 -29 275.5 -162t88 -299t-134.5 -287q74 -113 64.5 -257t-119.5 -264t-291.5 -141.5t-339.5 82.5q-53 37 -66.5 100.5 t21.5 117.5q37 53 99.5 63.5t126.5 -25.5t130 -30q64 6 100 52t24.5 102.5t-66.5 86.5q-25 14 -124.5 43.5t-176.5 106.5q-125 125 -118 298t142 292q-73 102 -71 227t66.5 222.5t160.5 147.5t216 50zM420 518q14 -16 100 -45l45 -18q59 35 71.5 88t-26.5 104 q-27 31 -78.5 34t-89.5 -21t-46.5 -66.5t24.5 -75.5z" glyph-name="section" horiz-adv-x="1003" unicode="§"/><glyph d="M338 1706q0 -57 -41 -98t-98.5 -41t-97.5 41t-40 98t40 98t97.5 41t98.5 -41t41 -98zM666 1706q0 -57 -41 -98t-98.5 -41t-97.5 41t-40 98t40 98t97.5 41t98.5 -41t41 -98z" glyph-name="dieresis" horiz-adv-x="727" unicode="¨"/><glyph d="M832 1528q320 0 545 -225.5t225 -543.5t-225 -544.5t-545 -226.5t-545.5 225t-225.5 545t225.5 545t545.5 225zM833.5 1278q-219.5 0 -372 -150.5t-152.5 -367.5t153.5 -369.5t371 -152.5t368 151.5t150.5 371.5t-149.5 368.5t-369 148.5zM834 375q-156 0 -269.5 114.5 t-113.5 277.5t114.5 276.5t258.5 114.5t257 -79q41 -31 48.5 -80t-23.5 -92t-85 -50t-93 24q-63 53 -145.5 17t-82.5 -130t83 -132t145 15q39 33 91 27t84 -48t25.5 -92.5t-47.5 -84.5q-91 -78 -247 -78z" glyph-name="copyright" unicode="©"/><glyph d="M450.5 903q57.5 0 98.5 -41t41 -99t-41 -97l-150 -150l150 -149q41 -41 41 -99.5t-41 -100.5t-98.5 -41t-98.5 42l-250 250q-43 43 -42 97t42 99l250 248q41 41 98.5 41zM935 903q58 0 98 -41t40 -99t-39 -97l-149 -150l149 -149q39 -41 39 -99.5t-40 -100.5t-97 -41 t-98 42l-250 250q-43 43 -42 97t42 99l250 248q39 41 97 41z" glyph-name="guillemotleft" horiz-adv-x="1126" unicode="«"/><glyph d="M1388.5 25q-65.5 0 -111.5 46t-46 111v275h-1032q-66 0 -112 46t-46 111.5t46 111.5t112 46h1190q66 0 111.5 -46t45.5 -112v-432q0 -66 -46 -111.5t-111.5 -45.5z" glyph-name="logicalnot" horiz-adv-x="1628" unicode="¬"/><glyph d="M832 1528q320 0 547 -226.5t227 -544.5t-227 -543.5t-547 -225.5t-545.5 225t-225.5 545t225.5 545t545.5 225zM833 1300q-222 0 -383 -160.5t-161 -382.5t163.5 -382t381.5 -160t381 162t163 381t-161.5 380.5t-383.5 161.5zM784 420q0 -45 -30.5 -75t-73.5 -30t-74 30 t-31 75v692q0 41 31 73t74 32h186q115 0 199 -83.5t84 -183.5q0 -193 -158 -268l137 -205q25 -35 17 -78t-45 -63q-94 -53 -146 24l-170 254v-194zM942 934q0 31 -22.5 53.5t-53.5 22.5h-82v-154h82q31 0 53.5 23.5t22.5 54.5z" glyph-name="registered" horiz-adv-x="1667" unicode="®"/><glyph d="M483 1626h-299q-51 0 -87 35t-36 86t36 87t87 36h299q51 0 87 -36t36 -87t-36 -86t-87 -35z" glyph-name="macron" horiz-adv-x="667" unicode="¯"/><glyph d="M355 1516q122 0 208 -85t86 -207t-86 -207t-208 -85t-208 85t-86 207t86 207t208 85zM354 1313q-35 0 -62.5 -26.5t-27.5 -62.5t27.5 -62.5t63.5 -26.5t62.5 26.5t26.5 61.5t-27.5 62.5t-62.5 27.5z" glyph-name="degree" horiz-adv-x="710" unicode="°"/><glyph d="M1024 926q57 0 98 -41t41 -98.5t-41 -99.5t-98 -42h-276v-168q0 -59 -42 -100t-99.5 -41t-98.5 42t-41 99v168h-277q-57 0 -98 41t-41 99t40 99.5t99 41.5h277v143q0 57 41 99t98.5 42t99.5 -42t42 -99v-143h276zM1024 0h-834q-57 0 -98 41t-41 100.5t40 99.5t99 40h834 q57 0 98 -41t41 -98.5t-41 -99.5t-98 -42z" glyph-name="plusminus" horiz-adv-x="1204" unicode="±"/><glyph d="M559 821q47 0 78 -31.5t31 -77.5t-32 -80t-77 -34h-366q-45 0 -76 31t-35 74.5t33 89.5l301 368q23 27 17.5 63t-34.5 58q-23 23 -59 20.5t-66 -38.5t-86 -35q-56 0 -87 59.5t14 116.5q84 100 204.5 109.5t216.5 -68.5t108.5 -201t-64.5 -219l-168 -205h147z" glyph-name="uni00B2" horiz-adv-x="729" unicode="²"/><glyph d="M596 1262q0 -98 -41 -152q86 -86 86 -213t-90 -218t-217 -91q-82 0 -151.5 42t-114.5 113q-25 39 -13.5 83t54.5 69q70 39 122 -8q10 -8 26.5 -28.5t37.5 -34.5t58 -5.5t53 38.5q33 63 -19 106q-18 12 -93 27t-75 112q0 41 28.5 69.5t62.5 30.5t53.5 18t12.5 40t-29.5 30 t-49.5 -12t-68 -11t-67 34t-29.5 62.5t12.5 66.5q49 86 173 86t201 -78t77 -176z" glyph-name="uni00B3" horiz-adv-x="722" unicode="³"/><glyph d="M240 1602q-37 -27 -87.5 -16.5t-74.5 60.5t-11 100t58 73l188 96q45 25 94 11.5t73 -59.5t7.5 -92t-61.5 -71z" glyph-name="acute" horiz-adv-x="432" unicode="´"/><glyph d="M915 1516q51 0 87 -37t36 -86v-1514q0 -51 -37 -87t-87 -36t-85.5 36t-35.5 87v1428h-127v-1428q0 -51 -36 -87t-88 -36t-88 35t-36 88v731q-162 29 -269.5 157t-107.5 302t128 307t310 140h436z" glyph-name="paragraph" horiz-adv-x="1130" unicode="¶"/><glyph d="M397 100v-139q68 -27 111 -89t43 -151t-72.5 -161t-166.5 -72t-162 55.5t-87 141.5q-8 37 13.5 68.5t58.5 39.5t69 -13.5t40 -58.5q10 -49 61 -49q27 0 44.5 17.5t17.5 44t-17.5 44t-50.5 17.5t-59.5 26.5t-26.5 65.5v213h184z" glyph-name="cedilla" horiz-adv-x="612" unicode="¸"/><glyph d="M295 1516q45 0 75.5 -34t30.5 -81v-684q0 -47 -32.5 -81t-79.5 -34t-80 34t-33 81v600h-47q-41 0 -69.5 28.5t-28.5 69.5t28.5 71t69.5 30h166z" glyph-name="uni00B9" horiz-adv-x="493" unicode="¹"/><glyph d="M190.5 129q-59.5 0 -99.5 40t-40 98.5t41 99.5l150 149l-150 150q-41 39 -41 97t40 99t98.5 41t99.5 -41l248 -248q41 -41 42 -99t-42 -97l-248 -250q-39 -39 -98.5 -39zM675.5 129q-59.5 0 -99.5 40t-39.5 98.5t41.5 99.5l149 149l-149 150q-41 39 -41 97t40.5 99t98 41 t98.5 -41l248 -248q41 -41 42 -99t-42 -97l-248 -250q-39 -39 -98.5 -39z" glyph-name="guillemotright" horiz-adv-x="1124" unicode="»"/><glyph d="M496 57q-29 -45 -77 -55t-92 14t-55.5 75.5t15.5 92.5l794 1278q27 43 78 54.5t94 -13.5q43 -29 53.5 -77t-16.5 -93zM356 1516q45 0 76 -34t31 -81v-684q0 -47 -33 -81t-80 -34t-79.5 34t-32.5 81v600h-48q-41 0 -69.5 28.5t-28.5 69.5t29 71t69 30h166zM1493 260 q0 -37 -24.5 -65.5t-61.5 -30.5v-53q0 -43 -30.5 -75t-73.5 -32t-73 32t-30 75v53h-276q-68 0 -92.5 45t6.5 92q6 10 64.5 97t124 184.5t123.5 182.5t58 87q34 53 86 53t82.5 -29.5t30.5 -72.5v-445q37 -2 61.5 -31.5t24.5 -66.5zM1200 358v148l-102 -148h102z" glyph-name="onequarter" horiz-adv-x="1585" unicode="¼"/><glyph d="M498 57q-27 -43 -79 -54t-87 13q-47 27 -58.5 76t17.5 92l794 1278q25 43 75 54.5t93 -13.5q41 -27 52.5 -76t-13.5 -94zM463 1401v-684q0 -47 -33 -81t-78 -34t-77.5 34t-32.5 81v600h-49q-43 0 -72 27.5t-29 69.5t29 72t72 30h159q47 0 79 -34t32 -81zM1542 223 q47 0 78 -31.5t31 -77.5t-32 -80t-77 -34h-366q-45 0 -76 31t-35 74.5t33 89.5l301 368q23 27 17.5 63t-34.5 58q-23 23 -58.5 20.5t-65.5 -38.5t-88 -35q-56 0 -86.5 59.5t14.5 116.5q84 100 204 109.5t216 -68.5t109 -201t-64 -219l-168 -205h147z" glyph-name="onehalf" horiz-adv-x="1763" unicode="½"/><glyph d="M596 1262q0 -98 -41 -152q86 -86 86 -213t-90 -218t-217 -91q-82 0 -151.5 42t-114.5 113q-25 39 -13.5 83t54.5 69q70 39 122 -8q10 -8 26.5 -28.5t37.5 -34.5t58 -5.5t53 38.5q33 63 -19 106q-18 12 -93 27t-75 112q0 41 28.5 69.5t62.5 30.5t53.5 18t12.5 40t-29.5 30 t-49.5 -12t-68 -11t-67 34t-29.5 62.5t12.5 66.5q49 86 173 86t201 -78t77 -176zM592 53q-25 -41 -78 -52t-92 13t-50.5 72.5t15.5 93.5l789 1274q25 43 74.5 54.5t92.5 -13.5q43 -29 53.5 -77t-16.5 -93zM1493 260q0 -37 -24.5 -65.5t-61.5 -30.5v-53q0 -43 -30.5 -75 t-73.5 -32t-73 32t-30 75v53h-276q-68 0 -92.5 45t6.5 92q6 10 64.5 97t124 184.5t123.5 182.5t58 87q34 53 86 53t82.5 -29.5t30.5 -72.5v-445q37 -2 61.5 -31.5t24.5 -66.5zM1200 358v148l-102 -148h102z" glyph-name="threequarters" horiz-adv-x="1654" unicode="¾"/><glyph d="M362 1366q0 61 44.5 105.5t105.5 44.5t105.5 -44.5t44.5 -105.5t-44.5 -105t-105.5 -44t-105.5 44t-44.5 105zM61 449q0 147 83 266t216 166v106q0 66 49 114t115 48t114 -48t48 -114v-176q0 -104 -24 -147q-45 -78 -140 -78q-55 0 -95 -40t-40 -104t54.5 -101.5t118 -21 t87.5 77.5q27 63 89.5 89t125.5 -1q61 -29 87 -90t-1 -125q-55 -129 -170.5 -205.5t-255.5 -76.5q-193 0 -327 135.5t-134 325.5z" glyph-name="questiondown" horiz-adv-x="1001" unicode="¿"/><glyph d="M739 1604l-188 100q-45 23 -58.5 71t9 93t71 60.5t93.5 -9.5l188 -100q45 -25 60.5 -73t-10.5 -95t-76 -59.5t-89 12.5zM1442 229q27 -61 3 -122.5t-85 -92.5q-49 -31 -116.5 -7t-98.5 91l-72 162h-627l-73 -162q-31 -68 -97.5 -89t-117.5 5q-61 27 -86 90.5t4 124.5 l530 1186q26 59 90 86t125 1t90 -87zM594 586h332l-166 372z" glyph-name="Agrave" horiz-adv-x="1527" unicode="À"/><glyph d="M819 1602q-37 -25 -87 -14.5t-76 60.5t-11.5 98t60.5 73l188 96q45 25 93 11.5t73 -59.5t8.5 -92t-61.5 -71zM1442 229q27 -61 3 -122.5t-85 -92.5q-49 -31 -116.5 -7t-98.5 91l-72 162h-627l-73 -162q-31 -68 -97.5 -89t-117.5 5q-61 27 -86 90.5t4 124.5l530 1186 q26 59 90 86t125 1t90 -87zM594 586h332l-166 372z" glyph-name="Aacute" horiz-adv-x="1527" unicode="Á"/><glyph d="M1066 1706q7 -51 -25 -91t-83 -46t-88 24l-102 78l-100 -78q-41 -31 -91.5 -24.5t-81 47.5t-24.5 90t47 80l176 135q33 25 74 26t74 -26l176 -133q41 -31 48 -82zM1442 229q27 -61 3 -122.5t-85 -92.5q-49 -31 -116.5 -7t-98.5 91l-72 162h-627l-73 -162 q-31 -68 -97.5 -89t-117.5 5q-61 27 -86 90.5t4 124.5l530 1186q26 59 90 86t125 1t90 -87zM594 586h332l-166 372z" glyph-name="Acircumflex" horiz-adv-x="1527" unicode="Â"/><glyph d="M1004 1886q50 0 71 -59.5t-4 -100.5q-61 -104 -158.5 -122.5t-210.5 57.5q-38 27 -67 -8q-57 -72 -133 -45q-43 14 -61.5 58t-2.5 87q39 106 156 137t201 -43q45 -39 75 -12q47 41 65.5 46t68.5 5zM1442 229q27 -61 3 -122.5t-85 -92.5q-49 -31 -116.5 -7t-98.5 91 l-72 162h-627l-73 -162q-31 -68 -97.5 -89t-117.5 5q-61 27 -86 90.5t4 124.5l530 1186q26 59 90 86t125 1t90 -87zM594 586h332l-166 372z" glyph-name="Atilde" horiz-adv-x="1527" unicode="Ã"/><glyph d="M743 1706q0 -57 -40.5 -98t-98 -41t-97.5 41t-40 98t40 98t97.5 41t98 -41t40.5 -98zM1071 1706q0 -57 -41 -98t-98.5 -41t-97 41t-39.5 98t39.5 98t97 41t98.5 -41t41 -98zM1442 229q27 -61 3 -122.5t-85 -92.5q-49 -31 -116.5 -7t-98.5 91l-72 162h-627l-73 -162 q-31 -68 -97.5 -89t-117.5 5q-61 27 -86 90.5t4 124.5l530 1186q26 59 90 86t125 1t90 -87zM594 586h332l-166 372z" glyph-name="Adieresis" horiz-adv-x="1527" unicode="Ä"/><glyph d="M768 2036q96 0 163.5 -67.5t67.5 -164t-67.5 -164t-163.5 -67.5t-163.5 67.5t-67.5 164t67.5 164t163.5 67.5zM768 1874q-29 0 -48.5 -20.5t-19.5 -48.5t20.5 -48t48.5 -20t48.5 19.5t20.5 48t-20.5 49t-49.5 20.5zM1442 229q27 -61 3 -122.5t-85 -92.5 q-49 -31 -116.5 -7t-98.5 91l-72 162h-627l-73 -162q-31 -68 -97.5 -89t-117.5 5q-61 27 -86 90.5t4 124.5l530 1186q26 59 90 86t125 1t90 -87zM594 586h332l-166 372z" glyph-name="Aring" horiz-adv-x="1527" unicode="Å"/><glyph d="M1559 328q68 0 115.5 -48.5t47.5 -116t-48 -115.5t-115 -48h-508q-70 0 -117 48t-47 116v98h-424l-80 -166q-33 -70 -97.5 -88t-119.5 10q-61 27 -84 92.5t6 127.5l567 1185q45 92 152 93h752q68 0 115.5 -48.5t47.5 -116t-48 -115.5t-115 -48h-347v-287h330 q59 0 101.5 -42t42.5 -101.5t-42 -100.5t-102 -41h-330v-288h347zM887 590v559l-269 -559h269z" glyph-name="AE" horiz-adv-x="1783" unicode="Æ"/><glyph d="M1030 -279q0 -89 -73 -161t-167 -72t-161.5 55.5t-85.5 141.5q-8 37 13.5 68.5t58 39.5t68.5 -13.5t40 -58.5q10 -49 61 -49q27 0 44.5 17.5t17.5 44t-17.5 44t-50.5 17.5t-59.5 26.5t-26.5 65.5v113q-274 47 -457.5 261t-183.5 497q0 319 226.5 544.5t543.5 225.5 q260 0 469 -160q53 -39 61.5 -107.5t-32.5 -120.5t-108.5 -61.5t-120.5 31.5q-121 92 -269 92q-182 0 -312 -130t-130 -313t130 -313t296 -130t285 90q53 41 120.5 32.5t108.5 -61.5t31.5 -121t-62.5 -109q-184 -139 -411 -155v-31q68 -27 110.5 -89t42.5 -151z" glyph-name="Ccedilla" horiz-adv-x="1425" unicode="Ç"/><glyph d="M469 1610l-188 100q-45 23 -59.5 72t7.5 94q25 45 73 59.5t93 -8.5l189 -102q45 -23 60.5 -72t-10.5 -96t-76 -59.5t-89 12.5zM766 328q66 0 114 -48t48 -116t-48.5 -116t-113.5 -48h-510q-68 0 -116 48t-48 114v1192q0 66 48 114t116 48h510q66 0 114 -48t48 -116 t-48.5 -116t-113.5 -48h-346v-287h328q59 0 101 -42t42 -101.5t-42 -101.5t-101 -42h-328v-286h346z" glyph-name="Egrave" horiz-adv-x="999" unicode="È"/><glyph d="M473 1610q-39 -25 -89 -12.5t-76 60.5t-10.5 96t60.5 71l189 102q45 23 94 8.5t73 -59.5t8.5 -94t-60.5 -72zM766 328q66 0 114 -48t48 -116t-48.5 -116t-113.5 -48h-510q-68 0 -116 48t-48 114v1192q0 66 48 114t116 48h510q66 0 114 -48t48 -116t-48.5 -116t-113.5 -48 h-346v-287h328q59 0 101 -42t42 -101.5t-42 -101.5t-101 -42h-328v-286h346z" glyph-name="Eacute" horiz-adv-x="999" unicode="É"/><glyph d="M808 1713q7 -50 -24 -91t-83 -47t-89 24l-102 78l-102 -78q-41 -31 -91.5 -24.5t-81 47.5t-24.5 91t47 81l176 135q76 57 150 0l176 -135q41 -31 48 -81zM766 328q66 0 114 -48t48 -116t-48.5 -116t-113.5 -48h-510q-68 0 -116 48t-48 114v1192q0 66 48 114t116 48h510 q66 0 114 -48t48 -116t-48.5 -116t-113.5 -48h-346v-287h328q59 0 101 -42t42 -101.5t-42 -101.5t-101 -42h-328v-286h346z" glyph-name="Ecircumflex" horiz-adv-x="999" unicode="Ê"/><glyph d="M190 1602l-188 100q-45 23 -59.5 71t9.5 93t72 60.5t93 -9.5l188 -100q45 -23 60.5 -71t-10.5 -96t-76 -60.5t-89 12.5zM239.5 0q-67.5 0 -114.5 48t-47 116v1188q0 68 47 116t114.5 48t115.5 -48.5t48 -115.5v-1188q0 -68 -48 -116t-115.5 -48z" glyph-name="Igrave" horiz-adv-x="495" unicode="Ì"/><glyph d="M297 1602q-39 -25 -89 -12.5t-75 58.5t-10.5 96t59.5 73l189 100q45 25 93 9.5t70.5 -60.5t9 -93.5t-58.5 -70.5zM256 0q-68 0 -116 48t-48 116v1188q0 68 48 116t116 48t116 -48.5t48 -115.5v-1188q0 -68 -48 -116t-116 -48z" glyph-name="Iacute" horiz-adv-x="487" unicode="Í"/><glyph d="M227.5 1946q40.5 0 73.5 -25l178 -135q39 -31 45.5 -81t-23.5 -92t-82 -48t-89 24l-103 78l-100 -78q-41 -31 -91 -24.5t-82 47.5t-24.5 91t47.5 81l177 135q33 27 73.5 27zM228 0q-67 0 -114.5 48t-47.5 114v1188q0 68 48 115.5t114 47.5t114.5 -48t48.5 -115v-1188 q0 -66 -48 -114t-115 -48z" glyph-name="Icircumflex" horiz-adv-x="452" unicode="Î"/><glyph d="M231 1705q0 -58 -39.5 -98t-97.5 -40t-98.5 41t-40.5 98t40 98t97.5 41t98 -41t40.5 -99zM559 1705q0 -58 -40 -98t-98 -40t-98 41t-40 98t39.5 98t97 41t98.5 -41t41 -99zM256 0q-68 0 -115 48t-47 116v1188q0 68 47 116t115 48t116 -48.5t48 -115.5v-1188 q0 -68 -48 -116t-116 -48z" glyph-name="Idieresis" horiz-adv-x="514" unicode="Ï"/><glyph d="M762 1516q313 0 535.5 -222.5t222.5 -536t-222.5 -535.5t-535.5 -222h-340q-63 0 -109.5 49t-46.5 115v465h-82q-59 0 -101 41t-42 100t42 101t101 42h82v439q0 68 47 116t115 48h334zM762 328q176 0 303 126t127 304t-127 304t-303 126h-170v-275h86q59 0 101 -42 t42 -100t-42 -100t-101 -42h-86v-301h170z" glyph-name="Eth" horiz-adv-x="1570" unicode="Ð"/><glyph d="M922.5 1886q63.5 0 84.5 -59.5t-3 -100.5q-61 -104 -158.5 -122.5t-210.5 57.5q-39 27 -68 -8q-57 -72 -133 -45q-43 14 -61.5 58t-1.5 87q39 106 155.5 137t200.5 -43q45 -39 76 -12q16 14 36 32.5t83.5 18.5zM1126.5 1516q67.5 0 115.5 -48.5t48 -113.5v-1190 q0 -111 -104.5 -150t-181.5 37q-14 15 -43 59t-269.5 395t-271.5 394v-735q0 -68 -48 -116t-116 -48t-116 48t-48 116v1190q0 66 48 114t119 48t120 -62t586 -844v744q0 66 47 114t114.5 48z" glyph-name="Ntilde" horiz-adv-x="1372" unicode="Ñ"/><glyph d="M782 1608l-190 100q-45 25 -59.5 73t9.5 93t72 60.5t95 -9.5l188 -100q45 -25 60.5 -73t-11.5 -97t-77 -60.5t-87 13.5zM832 1528q318 0 544 -225.5t226 -545t-226 -544.5t-544 -225t-544.5 225t-226.5 544.5t226.5 545t544.5 225.5zM829 1202q-182 0 -310 -130 t-128 -314.5t128 -314.5t310 -130t314.5 132.5t132.5 312.5t-132.5 312t-314.5 132z" glyph-name="Ograve" unicode="Ò"/><glyph d="M854 1608q-37 -25 -86 -13.5t-77 59.5t-12.5 97t60.5 74l189 100q47 25 95 9.5t72 -60.5t9.5 -93t-60.5 -73zM832 1528q318 0 544 -225.5t226 -545t-226 -544.5t-544 -225t-544.5 225t-226.5 544.5t226.5 545t544.5 225.5zM829 1202q-182 0 -310 -130t-128 -314.5 t128 -314.5t310 -130t314.5 132.5t132.5 312.5t-132.5 312t-314.5 132z" glyph-name="Oacute" unicode="Ó"/><glyph d="M829.5 1954q40.5 0 73.5 -25l178 -135q41 -31 48.5 -82t-25.5 -91t-84 -46t-88 24l-103 78l-100 -78q-41 -31 -91 -24.5t-81 47.5t-24.5 91t47.5 81l176 135q33 25 73.5 25zM832 1528q318 0 544 -225.5t226 -545t-226 -544.5t-544 -225t-544.5 225t-226.5 544.5 t226.5 545t544.5 225.5zM829 1202q-182 0 -310 -130t-128 -314.5t128 -314.5t310 -130t314.5 132.5t132.5 312.5t-132.5 312t-314.5 132z" glyph-name="Ocircumflex" unicode="Ô"/><glyph d="M1077.5 1886q49.5 0 70.5 -59.5t-3 -100.5q-61 -104 -158.5 -122.5t-210.5 57.5q-38 27 -67 -8q-57 -72 -134 -45q-43 14 -61 58t-2 87q39 106 155.5 137t200.5 -43q45 -39 76 -12q47 41 65.5 46t68 5zM832 1528q318 0 544 -225.5t226 -545t-226 -544.5t-544 -225 t-544.5 225t-226.5 544.5t226.5 545t544.5 225.5zM829 1202q-182 0 -310 -130t-128 -314.5t128 -314.5t310 -130t314.5 132.5t132.5 312.5t-132.5 312t-314.5 132z" glyph-name="Otilde" unicode="Õ"/><glyph d="M805 1712q0 -57 -41 -97t-98.5 -40t-98.5 40t-41 97t41 98t99 41t98.5 -41t40.5 -98zM1135 1712q0 -57 -41 -97t-98.5 -40t-98.5 40t-41 97t41 98t98.5 41t98.5 -41t41 -98zM832 1528q318 0 544 -225.5t226 -545t-226 -544.5t-544 -225t-544.5 225t-226.5 544.5 t226.5 545t544.5 225.5zM829 1202q-182 0 -310 -130t-128 -314.5t128 -314.5t310 -130t314.5 132.5t132.5 312.5t-132.5 312t-314.5 132z" glyph-name="Odieresis" unicode="Ö"/><glyph d="M1602 758q0 -319 -226.5 -544.5t-544.5 -225.5q-178 0 -337 78l-17 -25q-47 -74 -127 -31q-33 16 -41 55t13 72l16 29q-129 109 -203 262.5t-74 329.5q0 319 225.5 544.5t544.5 225.5q160 0 312 -66l12 17q53 72 127 30q33 -18 41.5 -59t-23.5 -82q139 -109 220.5 -268.5 t81.5 -341.5zM831 1200q-186 0 -315 -131t-130 -311t128 -309l455 731q-63 20 -138 20zM1274 758q0 180 -129 313q-12 12 -19 16l-458 -741q78 -31 163 -31q184 0 313.5 131.5t129.5 311.5z" glyph-name="Oslash" unicode="Ø"/><glyph d="M522 1608l-188 100q-45 23 -59.5 71t9.5 93t71.5 60.5t93.5 -9.5l188 -100q45 -23 60.5 -71t-10.5 -96t-76 -60.5t-89 12.5zM588 -12q-209 0 -357.5 148.5t-148.5 357.5v860q0 66 48 114t115 48t115 -48.5t48 -113.5v-860q0 -74 52 -126.5t128 -52.5t128 52.5t52 126.5 v860q0 66 48 114t115 48t115 -48.5t48 -113.5v-860q0 -209 -148.5 -357.5t-357.5 -148.5z" glyph-name="Ugrave" horiz-adv-x="1165" unicode="Ù"/><glyph d="M637 1608q-41 -23 -90 -10.5t-75 57.5t-10.5 95t60.5 73l189 100q45 25 93 10.5t72 -60.5t9 -94t-60 -71zM588 -12q-209 0 -357.5 148.5t-148.5 357.5v860q0 66 48 114t115 48t115 -48.5t48 -113.5v-860q0 -74 52 -126.5t128 -52.5t128 52.5t52 126.5v860q0 66 48 114 t115 48t115 -48.5t48 -113.5v-860q0 -209 -148.5 -357.5t-357.5 -148.5z" glyph-name="Uacute" horiz-adv-x="1165" unicode="Ú"/><glyph d="M586 1952q41 0 76 -25l176 -135q41 -31 48 -80t-24 -91t-83 -48t-89 24l-102 78l-103 -78q-41 -31 -90 -24.5t-79.5 47.5t-22.5 91t45 81l174 135q33 25 74 25zM588 -12q-209 0 -357.5 148.5t-148.5 357.5v860q0 66 48 114t115 48t115 -48.5t48 -113.5v-860 q0 -74 52 -126.5t128 -52.5t128 52.5t52 126.5v860q0 66 48 114t115 48t115 -48.5t48 -113.5v-860q0 -209 -148.5 -357.5t-357.5 -148.5z" glyph-name="Ucircumflex" horiz-adv-x="1165" unicode="Û"/><glyph d="M563 1712q0 -57 -41 -98t-98 -41t-98 41t-41 98t41 97t98 40t98 -40t41 -97zM891 1712q0 -57 -40 -98t-98 -41t-99.5 41t-41.5 98t41 97t98.5 40t98.5 -40t41 -97zM588 -12q-209 0 -357.5 148.5t-148.5 357.5v860q0 66 48 114t115 48t115 -48.5t48 -113.5v-860 q0 -74 52 -126.5t128 -52.5t128 52.5t52 126.5v860q0 66 48 114t115 48t115 -48.5t48 -113.5v-860q0 -209 -148.5 -357.5t-357.5 -148.5z" glyph-name="Udieresis" horiz-adv-x="1165" unicode="Ü"/><glyph d="M621 1602q-37 -27 -88 -16.5t-75 60.5t-10.5 100t58.5 73l188 96q45 25 93.5 11.5t72.5 -59.5t8 -92t-61 -71zM758 162q0 -66 -48 -114t-116 -48t-115 48t-47 114v594l-350 501q-39 55 -27.5 121t66.5 106t120.5 28.5t104.5 -66.5l248 -354l248 354q39 55 104.5 66.5 t121.5 -27.5t67.5 -105.5t-27.5 -122.5l-350 -501v-594z" glyph-name="Yacute" horiz-adv-x="1177" unicode="Ý"/><glyph d="M618 0q-62 0 -105.5 40t-48.5 101t35 109.5t101 54.5t101 50t40 103.5t-38.5 101.5t-96.5 52t-97.5 51.5t-39.5 96.5t30.5 98.5t82.5 57.5t84 54t32 96t-44 100t-105 44h-152v-1056q0 -63 -45 -108.5t-108.5 -45.5t-107.5 45t-44 109v1210q0 63 44 107.5t108 44.5h305 q188 0 321.5 -133.5t133.5 -306.5t-93 -290q135 -135 135 -321t-118 -315q-72 -80 -160 -115t-150 -35z" glyph-name="germandbls" horiz-adv-x="1107" unicode="ß"/><glyph d="M623 1124l-189 101q-45 25 -60.5 73t9.5 93t73 59t93 -8l188 -101q45 -25 59.5 -73.5t-11.5 -96.5t-76.5 -60t-85.5 13zM950 1024q68 0 114 -45t46 -109v-716q0 -63 -45 -108.5t-110 -45.5t-113 49q-125 -66 -256 -65q-217 0 -371 153.5t-154 370.5t154 370.5t371 153.5 q127 0 252 -65q44 57 112 57zM586 309q82 0 140 58.5t58 140.5t-58 140.5t-140 58.5t-140.5 -58.5t-58.5 -140.5t58.5 -140.5t140.5 -58.5z" glyph-name="agrave" horiz-adv-x="1191" unicode="à"/><glyph d="M549 1124q-39 -25 -89 -11.5t-74 61.5t-10.5 95.5t58.5 69.5l189 101q45 25 93 10.5t70.5 -59.5t9 -94.5t-58.5 -71.5zM950 1024q68 0 114 -45t46 -109v-716q0 -63 -45 -108.5t-110 -45.5t-113 49q-125 -66 -256 -65q-217 0 -371 153.5t-154 370.5t154 370.5t371 153.5 q127 0 252 -65q44 57 112 57zM586 309q82 0 140 58.5t58 140.5t-58 140.5t-140 58.5t-140.5 -58.5t-58.5 -140.5t58.5 -140.5t140.5 -58.5z" glyph-name="aacute" horiz-adv-x="1191" unicode="á"/><glyph d="M858 1139q-33 -41 -83 -47.5t-87 24.5l-102 78l-101 -78q-41 -31 -91 -24.5t-80.5 47.5t-24.5 91t47 81l174 133q76 57 149 0l177 -133q41 -31 48 -81t-26 -91zM950 1024q68 0 114 -45t46 -109v-716q0 -63 -45 -108.5t-110 -45.5t-113 49q-125 -66 -256 -65 q-217 0 -371 153.5t-154 370.5t154 370.5t371 153.5q127 0 252 -65q44 57 112 57zM586 309q82 0 140 58.5t58 140.5t-58 140.5t-140 58.5t-140.5 -58.5t-58.5 -140.5t58.5 -140.5t140.5 -58.5z" glyph-name="acircumflex" horiz-adv-x="1191" unicode="â"/><glyph d="M832 1395q50 0 71 -59.5t-4 -100.5q-61 -104 -158.5 -122.5t-210.5 56.5q-38 27 -67 -8q-57 -72 -133 -45q-43 14 -61.5 58.5t-2.5 87.5q39 106 156 137t201 -43q45 -39 75 -13q48 42 66 47t68 5zM950 1024q68 0 114 -45t46 -109v-716q0 -63 -45 -108.5t-110 -45.5 t-113 49q-125 -66 -256 -65q-217 0 -371 153.5t-154 370.5t154 370.5t371 153.5q127 0 252 -65q44 57 112 57zM586 309q82 0 140 58.5t58 140.5t-58 140.5t-140 58.5t-140.5 -58.5t-58.5 -140.5t58.5 -140.5t140.5 -58.5z" glyph-name="atilde" horiz-adv-x="1191" unicode="ã"/><glyph d="M559 1222.5q0 -57.5 -40 -97.5t-97 -40t-98 40t-41 97.5t41 98.5t98 41t97 -41t40 -98.5zM887 1222.5q0 -57.5 -40 -97.5t-97.5 -40t-98.5 40.5t-41 98.5t41 98t98.5 40t97.5 -41t40 -98.5zM950 1024q68 0 114 -45t46 -109v-716q0 -63 -45 -108.5t-110 -45.5t-113 49 q-125 -66 -256 -65q-217 0 -371 153.5t-154 370.5t154 370.5t371 153.5q127 0 252 -65q44 57 112 57zM586 309q82 0 140 58.5t58 140.5t-58 140.5t-140 58.5t-140.5 -58.5t-58.5 -140.5t58.5 -140.5t140.5 -58.5z" glyph-name="adieresis" horiz-adv-x="1191" unicode="ä"/><glyph d="M585.5 1556q96.5 0 164 -67.5t67.5 -163.5t-68.5 -163.5t-162.5 -67.5t-163 67.5t-69 163.5t67.5 163.5t164 67.5zM585.5 1395q-28.5 0 -49 -20.5t-20.5 -49.5t20.5 -48.5t49 -19.5t48 20.5t19.5 48.5t-19.5 48.5t-48 20.5zM950 1024q68 0 114 -45t46 -109v-716 q0 -63 -45 -108.5t-110 -45.5t-113 49q-125 -66 -256 -65q-217 0 -371 153.5t-154 370.5t154 370.5t371 153.5q127 0 252 -65q44 57 112 57zM586 309q82 0 140 58.5t58 140.5t-58 140.5t-140 58.5t-140.5 -58.5t-58.5 -140.5t58.5 -140.5t140.5 -58.5z" glyph-name="aring" horiz-adv-x="1191" unicode="å"/><glyph d="M1552 393h-479q68 -98 184.5 -120.5t204.5 32.5q53 31 108.5 15.5t85.5 -66.5t14.5 -106.5t-64.5 -86.5q-270 -150 -545 -20q-47 -41 -110 -41t-109 53q-121 -70 -256 -69q-219 0 -372 153.5t-153 371.5t153 370.5t372 152.5q137 0 248 -61q47 53 113 53t114 -41 q94 49 223 49q197 0 344 -128.5t176 -325.5q16 -109 -52.5 -147t-199.5 -38zM1283 760q-77 0 -135.5 -38t-74.5 -95h418q-12 57 -71.5 95t-136.5 38zM586 309q82 0 140 58.5t58 140.5t-58 140.5t-140 58.5t-140.5 -58.5t-58.5 -140.5t58.5 -140.5t140.5 -58.5z" glyph-name="ae" horiz-adv-x="1857" unicode="æ"/><glyph d="M834 -284q0 -88 -72 -160t-167 -72t-162.5 55t-86.5 139q-6 39 14.5 70t58.5 39t68.5 -12.5t36.5 -50.5q12 -59 64 -58q27 0 44 18.5t17 44.5t-17.5 44t-49.5 18t-59 26.5t-27 65.5v107q-186 33 -310.5 178t-124.5 350t154 359.5t371 154.5q174 0 321 -108 q53 -41 61.5 -108.5t-32.5 -121t-108.5 -62.5t-119.5 32t-128 41t-134.5 -58.5t-58.5 -140.5t58.5 -140.5t132.5 -58.5t128 41t121.5 32t108.5 -62.5t31.5 -120t-62.5 -107.5q-100 -78 -225 -100v-33q68 -29 111 -91t43 -150z" glyph-name="ccedilla" horiz-adv-x="1021" unicode="ç"/><glyph d="M545 1120l-187 101q-45 23 -59 70.5t8.5 93t71.5 59.5t94 -8l186 -101q45 -25 59 -74t-10 -95t-74 -58.5t-89 12.5zM915 389h-544q66 -100 180.5 -121.5t210.5 35.5q49 31 105.5 15.5t84.5 -65.5t14 -106.5t-63 -85.5q-133 -77 -298 -77t-299 85t-197 218 q-47 96 -48.5 211.5t41.5 214.5q57 137 186.5 228t311.5 91t329.5 -131t172.5 -328q8 -88 -43 -136t-144 -48zM582 774q-74 0 -134.5 -45t-74.5 -106h418q-14 61 -74.5 106t-134.5 45z" glyph-name="egrave" horiz-adv-x="1153" unicode="è"/><glyph d="M545 1120q-39 -25 -89 -12.5t-74 59.5t-10.5 95.5t58.5 72.5l188 101q45 23 93.5 8.5t72.5 -60.5t9 -93.5t-60 -69.5zM915 389h-544q66 -100 180.5 -121.5t210.5 35.5q49 31 105.5 15.5t84.5 -65.5t14 -106.5t-63 -85.5q-133 -77 -298 -77t-299 85t-197 218 q-47 96 -48.5 211.5t41.5 214.5q57 137 186.5 228t311.5 91t329.5 -131t172.5 -328q8 -88 -43 -136t-144 -48zM582 774q-74 0 -134.5 -45t-74.5 -106h418q-14 61 -74.5 106t-134.5 45z" glyph-name="eacute" horiz-adv-x="1153" unicode="é"/><glyph d="M876.5 1229q6.5 -49 -23.5 -91t-81 -48.5t-88 24.5l-102 78l-101 -78q-41 -31 -91 -24.5t-80.5 47.5t-24.5 91t47 81l176 133q33 27 74 26.5t73 -24.5l176 -135q39 -31 45.5 -80zM915 389h-544q66 -100 180.5 -121.5t210.5 35.5q49 31 105.5 15.5t84.5 -65.5t14 -106.5 t-63 -85.5q-133 -77 -298 -77t-299 85t-197 218q-47 96 -48.5 211.5t41.5 214.5q57 137 186.5 228t311.5 91t329.5 -131t172.5 -328q8 -88 -43 -136t-144 -48zM582 774q-74 0 -134.5 -45t-74.5 -106h418q-14 61 -74.5 106t-134.5 45z" glyph-name="ecircumflex" horiz-adv-x="1153" unicode="ê"/><glyph d="M182 1130l-188 101q-45 25 -60.5 73t9 93t72.5 60.5t94 -9.5l190 -100q45 -25 59.5 -73t-10.5 -95t-76 -61t-90 11zM232 0q-69 0 -116.5 48t-47.5 116v706q0 68 48 116t116 48t116.5 -48t48.5 -116v-706q0 -68 -48 -116t-117 -48z" glyph-name="igrave" horiz-adv-x="479" unicode="ì"/><glyph d="M287 1128q-39 -25 -90 -11.5t-75 61.5t-10.5 95.5t58.5 72.5l190 100q45 25 93.5 10.5t72.5 -60.5t9 -94.5t-60 -72.5zM245.5 0q-67.5 0 -115.5 48t-48 116v704q0 68 48 116t115.5 48t116 -48t48.5 -116v-704q0 -68 -48.5 -116t-116 -48z" glyph-name="iacute" horiz-adv-x="468" unicode="í"/><glyph d="M223.5 1481q40.5 0 73.5 -27l178 -133q41 -31 47.5 -81t-24.5 -92t-83.5 -48t-88.5 24l-103 78l-100 -78q-41 -31 -91 -23.5t-81 47.5t-25 90t47 81l177 135q33 27 73.5 27zM224 0q-69 0 -117 48t-48 116v704q0 70 48.5 118t116.5 48t115.5 -48t47.5 -118v-704 q0 -68 -47 -116t-116 -48z" glyph-name="icircumflex" horiz-adv-x="448" unicode="î"/><glyph d="M215 1224.5q0 -57.5 -41 -98.5t-98.5 -41t-97 41t-39.5 98.5t39.5 98.5t97 41t98.5 -41t41 -98.5zM543 1224.5q0 -57.5 -41 -98.5t-98.5 -41t-97.5 41t-40 98.5t40 98.5t97.5 41t98.5 -41t41 -98.5zM239.5 0q-67.5 0 -115.5 48t-48 116v704q0 68 48 116t115.5 48 t115.5 -48t48 -116v-704q0 -68 -48 -116t-115.5 -48z" glyph-name="idieresis" horiz-adv-x="481" unicode="ï"/><glyph d="M1155 528q0 -223 -159.5 -381.5t-383 -158.5t-382 158.5t-158.5 372.5t135 367.5t336 178.5l-33 55q-47 -27 -91 -15.5t-68 53.5t-10.5 87t60.5 72q-14 53 6.5 105.5t67.5 79t101.5 20.5t95.5 -45q43 27 87.5 15.5t68.5 -51.5t12.5 -84t-49.5 -71l303 -508 q61 -111 61 -250zM612 315q88 0 150.5 62.5t62.5 149.5t-62.5 151.5t-150.5 64.5t-150.5 -63.5t-62.5 -151.5t62.5 -150.5t150.5 -62.5z" glyph-name="eth" horiz-adv-x="1247" unicode="ð"/><glyph d="M778.5 1395q49.5 0 70.5 -59.5t-3 -100.5q-61 -104 -158.5 -122.5t-210.5 56.5q-38 27 -67 -8q-57 -72 -134 -45q-43 14 -61 58.5t-2 87.5q39 106 155.5 137t200.5 -43q45 -39 76 -13q48 42 66 47t67.5 5zM532 1034q186 0 318.5 -132t132.5 -318v-422q0 -66 -47 -114 t-114.5 -48t-116 48t-48.5 114v422q0 51 -35.5 88t-89 37t-90 -37t-36.5 -88v-422q0 -66 -47.5 -114t-115 -48t-114.5 48t-47 114v706q0 66 45 111t103 45t104 -35q94 45 198 45z" glyph-name="ntilde" horiz-adv-x="1044" unicode="ñ"/><glyph d="M537 1118l-189 101q-45 23 -58.5 70.5t9.5 92.5t71 59.5t93 -7.5l188 -101q45 -25 59.5 -74t-10.5 -95t-74.5 -58.5t-88.5 12.5zM586 1032q217 0 370.5 -153.5t153.5 -370.5t-153.5 -370.5t-370.5 -153.5t-371 153.5t-154 370.5t154 370.5t371 153.5zM586 707 q-82 0 -140.5 -58.5t-58.5 -140.5t58.5 -140.5t140.5 -58.5t140 58.5t58 140.5t-58 140.5t-140 58.5z" glyph-name="ograve" horiz-adv-x="1171" unicode="ò"/><glyph d="M610 1118q-39 -25 -89 -12.5t-75 58.5t-10 95.5t60 73.5l188 101q45 23 93 8t72 -60t9.5 -93t-59.5 -70zM586 1032q217 0 370.5 -153.5t153.5 -370.5t-153.5 -370.5t-370.5 -153.5t-371 153.5t-154 370.5t154 370.5t371 153.5zM586 707q-82 0 -140.5 -58.5t-58.5 -140.5 t58.5 -140.5t140.5 -58.5t140 58.5t58 140.5t-58 140.5t-140 58.5z" glyph-name="oacute" horiz-adv-x="1171" unicode="ó"/><glyph d="M883 1227q6 -49 -25 -91t-82 -48.5t-88 24.5l-102 78l-101 -78q-41 -31 -91 -24.5t-80.5 47.5t-24.5 91t47 81l174 133q74 57 149 2l177 -135q41 -31 47 -80zM586 1032q217 0 370.5 -153.5t153.5 -370.5t-153.5 -370.5t-370.5 -153.5t-371 153.5t-154 370.5t154 370.5 t371 153.5zM586 707q-82 0 -140.5 -58.5t-58.5 -140.5t58.5 -140.5t140.5 -58.5t140 58.5t58 140.5t-58 140.5t-140 58.5z" glyph-name="ocircumflex" horiz-adv-x="1171" unicode="ô"/><glyph d="M832 1395q50 0 71 -59.5t-4 -100.5q-61 -104 -158.5 -122.5t-210.5 56.5q-38 27 -67 -8q-57 -72 -133 -45q-43 14 -61.5 58.5t-2.5 87.5q39 106 156 137t201 -43q45 -39 75 -13q48 42 66 47t68 5zM586 1032q217 0 370.5 -153.5t153.5 -370.5t-153.5 -370.5t-370.5 -153.5 t-371 153.5t-154 370.5t154 370.5t371 153.5zM586 707q-82 0 -140.5 -58.5t-58.5 -140.5t58.5 -140.5t140.5 -58.5t140 58.5t58 140.5t-58 140.5t-140 58.5z" glyph-name="otilde" horiz-adv-x="1171" unicode="õ"/><glyph d="M561 1214.5q0 -57.5 -41 -98.5t-98 -41t-97 41t-40 98.5t40 97.5t97 40t98 -40t41 -97.5zM887 1214.5q0 -57.5 -40 -98.5t-97.5 -41t-98.5 41t-41 98.5t41 97.5t98.5 40t97.5 -40t40 -97.5zM586 1032q217 0 370.5 -153.5t153.5 -370.5t-153.5 -370.5t-370.5 -153.5 t-371 153.5t-154 370.5t154 370.5t371 153.5zM586 707q-82 0 -140.5 -58.5t-58.5 -140.5t58.5 -140.5t140.5 -58.5t140 58.5t58 140.5t-58 140.5t-140 58.5z" glyph-name="odieresis" horiz-adv-x="1171" unicode="ö"/><glyph d="M750 949q0 -60 -43 -101t-103 -41t-103.5 41t-43.5 101t43 103.5t103 43.5t103.5 -43.5t43.5 -103.5zM1016 461h-826q-57 0 -98 40t-41 97t41 98t98 41h826q55 0 96 -41t41 -98t-41 -97t-96 -40zM750 246q0 -61 -43 -103.5t-103 -42.5t-103.5 42t-43.5 104t42 103.5 t103.5 41.5t104.5 -42t43 -103z" glyph-name="divide" horiz-adv-x="1193" unicode="÷"/><glyph d="M1110 520q0 -229 -153.5 -382.5t-370.5 -153.5q-111 0 -207 43q-41 -57 -107 -19q-27 14 -35 46t5 59q-180 158 -180 385t153.5 380.5t370.5 153.5q104 0 202 -41q18 25 48 30t59 -11q60 -37 31 -103q184 -158 184 -387zM387 508q0 -59 33 -109l190 306 q-66 16 -143.5 -39.5t-79.5 -157.5zM784 508q0 66 -34 113l-193 -310q72 -16 148.5 39.5t78.5 157.5z" glyph-name="oslash" horiz-adv-x="1171" unicode="ø"/><glyph d="M469 1122l-188 101q-45 25 -59.5 72.5t7.5 93.5q25 45 73 59t93 -8l189 -101q45 -25 59.5 -73.5t-11.5 -96.5t-77 -60t-86 13zM534.5 -16q-186.5 0 -319.5 133t-133 319v426q0 68 47 115t116 47t116 -48t47 -114v-426q0 -51 37.5 -89t89 -38t89.5 38t38 89v426 q0 66 47 114t115 48t115.5 -47t47.5 -115v-426q0 -186 -133 -319t-319.5 -133z" glyph-name="ugrave" horiz-adv-x="1048" unicode="ù"/><glyph d="M584 1122q-35 -25 -87.5 -13.5t-76.5 61.5t-10 97.5t59 71.5l188 101q45 23 93 8.5t72 -59.5t9.5 -93.5t-59.5 -72.5zM534.5 -16q-186.5 0 -319.5 133t-133 319v426q0 68 47 115t116 47t116 -48t47 -114v-426q0 -51 37.5 -89t89 -38t89.5 38t38 89v426q0 66 47 114 t115 48t115.5 -47t47.5 -115v-426q0 -186 -133 -319t-319.5 -133z" glyph-name="uacute" horiz-adv-x="1048" unicode="ú"/><glyph d="M829.5 1232q6.5 -50 -23.5 -91t-81 -47.5t-88 24.5l-102 78l-103 -78q-41 -31 -90 -24.5t-80 46.5t-24.5 91t47.5 82l174 133q74 57 149 2l176 -135q39 -31 45.5 -81zM534.5 -16q-186.5 0 -319.5 133t-133 319v426q0 68 48 115t115.5 47t115 -47t47.5 -115v-426 q0 -51 37.5 -89t89 -38t89.5 38t38 89v426q0 68 47 115t114.5 47t115.5 -47t48 -115v-426q0 -186 -133 -319t-319.5 -133z" glyph-name="ucircumflex" horiz-adv-x="1048" unicode="û"/><glyph d="M510 1220q0 -58 -41 -98.5t-98.5 -40.5t-98.5 40t-41 97.5t41.5 98.5t99.5 41t98 -40t40 -98zM838 1220q0 -58 -41 -98.5t-98.5 -40.5t-97.5 40t-40 97.5t40 98.5t98 41t98.5 -40t40.5 -98zM534.5 -16q-186.5 0 -319.5 133t-133 319v426q0 68 47 115t116 47t116 -48 t47 -114v-426q0 -51 37.5 -89t89 -38t89.5 38t38 89v426q0 66 47 114t115 48t115.5 -47t47.5 -115v-426q0 -186 -133 -319t-319.5 -133z" glyph-name="udieresis" horiz-adv-x="1048" unicode="ü"/><glyph d="M610 1120q-39 -25 -89 -12.5t-74 59.5t-10 95.5t59 72.5l188 101q45 23 93 8.5t72 -60.5t9.5 -93.5t-59.5 -69.5zM180 -389q-55 0 -103 37t-47 102t42.5 106.5t105.5 40.5t118 33.5t81 96.5l31 71l-291 705q-25 63 2 124.5t89 88.5t124.5 0t87.5 -88l141 -344l139 344 q29 63 89.5 89t124.5 -1t90 -88.5t0 -124.5l-316 -774q-55 -137 -96 -201q-63 -98 -174 -157.5t-238 -59.5z" glyph-name="yacute" horiz-adv-x="1077" unicode="ý"/><glyph d="M537 1222.5q0 -57.5 -40 -97.5t-97.5 -40t-98.5 40t-41 97.5t41 98.5t98.5 41t97.5 -41t40 -98.5zM864 1222.5q0 -57.5 -40 -97.5t-97 -40t-98 40.5t-41 98.5t40 98t98 40t98 -41t40 -98.5zM180 -389q-55 0 -103 37t-47 102t42.5 106.5t105.5 40.5t118 33.5t81 96.5 l31 71l-291 705q-25 63 2 124.5t89 88.5t124.5 0t87.5 -88l141 -344l139 344q29 63 89.5 89t124.5 -1t90 -88.5t0 -124.5l-316 -774q-55 -137 -96 -201q-63 -98 -174 -157.5t-238 -59.5z" glyph-name="ydieresis" horiz-adv-x="1077" unicode="ÿ"/><glyph d="M956 328q68 0 116 -48.5t48 -116t-48 -115.5t-116 -48h-510q-70 0 -116.5 48t-46.5 116v295l-35 -39q-37 -37 -85 -41t-89 29q-39 33 -43 84t30 90l222 252v518q0 68 47.5 116t115.5 48t116 -48.5t48 -115.5v-146l33 41q33 39 84 42t90 -31t42 -84t-30 -89l-219 -251 v-506h346z" glyph-name="Lslash" horiz-adv-x="1161" unicode="Ł"/><glyph d="M606 164q0 -68 -47 -116t-116 -48t-115.5 48t-46.5 116v192l-35 -39q-35 -41 -87.5 -42t-84.5 32q-39 35 -42 85t29 87l220 250v469q0 68 47.5 116t115.5 48t115 -48t47 -116v-96l35 41q35 39 85 42t89 -30t42 -84t-30 -90l-221 -250v-567z" glyph-name="lslash" horiz-adv-x="907" unicode="ł"/><glyph d="M1950 328q68 0 116 -48.5t48 -116t-48.5 -115.5t-115.5 -48h-510q-57 0 -101.5 35t-58.5 90q-199 -143 -446 -143q-319 0 -546 225t-227 546t226.5 546t546.5 225q244 0 444 -142q10 57 56 95.5t106 38.5h510q68 0 116 -47.5t48 -115t-48.5 -115.5t-115.5 -48h-348v-289 h331q59 0 101.5 -42t42.5 -101t-42 -101.5t-102 -42.5h-331v-286h348zM1276 756q0 184 -127 312t-313 128t-316.5 -129t-130.5 -314t130 -314.5t314.5 -129.5t313.5 131.5t129 315.5z" glyph-name="OE" horiz-adv-x="2185" unicode="Œ"/><glyph d="M1567 393h-477q66 -100 180 -122.5t211 34.5q49 31 104 15.5t86 -66.5t15.5 -106.5t-68.5 -86.5q-150 -92 -339 -75.5t-331 143.5q-16 -16 -45 -41t-123 -64.5t-194 -39.5q-217 0 -371 153.5t-154 371.5t154 370.5t366 152.5t363 -141q146 141 352 141t354 -129.5 t173 -324.5q14 -111 -53.5 -148t-202.5 -37zM1300 760q-76 0 -135 -38t-75 -95h419q-16 57 -74.5 95t-134.5 38zM587 309q83 0 141 58.5t58 140.5t-58 140.5t-141 58.5t-141.5 -58.5t-58.5 -140.5t58.5 -140.5t141.5 -58.5z" glyph-name="oe" horiz-adv-x="1873" unicode="œ"/><glyph d="M698 1986.5q51 -6.5 81 -48.5t24 -91t-45 -80l-176 -135q-33 -25 -74 -24.5t-74 24.5l-176 135q-41 31 -47 80t24.5 90t81 47.5t91.5 -24.5l100 -76l102 78q37 31 88 24.5zM836 160q-94 -104 -281 -162.5t-422 86.5q-55 35 -67.5 102.5t27.5 129.5t120 67q45 3 96 -22 t68 -31q131 -43 211 45q49 55 35.5 124.5t-80.5 102.5q-25 14 -137 49.5t-193 116.5q-131 131 -127 313q2 119 64 220.5t172 162.5t242 62.5t249 -66.5q57 -35 75.5 -103.5t-16.5 -121.5q-74 -117 -235 -53q-92 39 -170 -13.5t-49 -128.5q24 -63 138 -99t138 -48 q109 -55 178.5 -159.5t79.5 -225.5q17 -203 -116 -348z" glyph-name="Scaron" horiz-adv-x="1015" unicode="Š"/><glyph d="M559 1481q51 -6 81 -48t23.5 -91.5t-45.5 -79.5l-176 -136q-33 -25 -73.5 -24.5t-73.5 24.5l-176 136q-41 31 -47 80t24.5 90t80.5 47t91 -25l101 -76l102 78q37 31 88 25zM463 754q-96 31 -107 -19q-4 -18 19.5 -37.5t75.5 -29.5q94 -18 163 -95q70 -72 86.5 -179 t-24.5 -198t-126.5 -147.5t-175.5 -61.5t-180 19.5t-133 79.5q-59 80 -14 167t141 83q27 -2 78 -22.5t72 -20.5q55 -4 64.5 42t-44.5 60q-106 33 -173.5 79t-104.5 122t-29 153.5t53 139.5q74 98 199 131t240 -12q68 -27 99.5 -82.5t-1.5 -124.5q-53 -90 -178 -47z" glyph-name="scaron" horiz-adv-x="784" unicode="š"/><glyph d="M569 1706q0 -57 -41 -98t-98 -41t-97 41t-40 98t40 98t97 41t98 -41t41 -98zM897 1706q0 -57 -41 -98t-98.5 -41t-97 41t-39.5 98t39.5 98t97 41t98.5 -41t41 -98zM758 162q0 -66 -48 -114t-116 -48t-115 48t-47 114v594l-350 501q-39 55 -27.5 121t66.5 106t120.5 28.5 t104.5 -66.5l248 -354l248 354q39 55 104.5 66.5t121.5 -27.5t67.5 -105.5t-27.5 -122.5l-350 -501v-594z" glyph-name="Ydieresis" horiz-adv-x="1177" unicode="Ÿ"/><glyph d="M631 1597q-41 0 -74 25l-176 135q-41 31 -47 80t24.5 90t80.5 47t91 -24l101 -76l102 78q37 31 88 24.5t81 -48.5t24 -91t-45 -80l-176 -135q-33 -25 -74 -25zM1044 328q68 0 116 -48t48 -116t-48 -116t-116 -48h-829q-49 0 -98 35t-60.5 100.5t27.5 122.5l666 952h-545 q-63 0 -108.5 45t-45.5 108.5t45 108t109 44.5h835q62 0 108 -36t57.5 -100.5t-25.5 -119.5l-652 -932h516z" glyph-name="Zcaron" horiz-adv-x="1251" unicode="Ž"/><glyph d="M698 1474.5q51 -6.5 81 -48.5t24 -91t-45 -80l-176 -135q-33 -25 -74 -24.5t-74 24.5l-176 135q-41 31 -47 80t24.5 90t81 47.5t91.5 -24.5l100 -76l102 78q37 31 88 24.5zM799 326q68 0 116 -49t48 -115t-48.5 -114t-115.5 -48h-582q-66 0 -114 47t-49 111t38 110 l375 451h-262q-63 0 -108.5 44t-45.5 107.5t45 108.5t109 45h592q61 0 109 -41t54.5 -108.5t-36.5 -118.5l-361 -430h236z" glyph-name="zcaron" horiz-adv-x="1003" unicode="ž"/><glyph d="M729 848q59 0 99 -42t40 -101.5t-40 -101.5t-99 -42h-119v-549q0 -166 -116.5 -281.5t-282.5 -115.5q-66 0 -113 49t-47 116t47 116t113 49q31 0 51.5 18.5t20.5 48.5v910q0 180 124.5 306t301.5 126q66 0 112.5 -50t46.5 -116t-47 -115t-100 -49t-82 -28.5t-29 -73.5 v-74h119z" glyph-name="florin" horiz-adv-x="909" unicode="ƒ"/><glyph d="M656.5 1706q7.5 -51 -24.5 -91t-83 -46t-88 24l-103 78l-100 -78q-41 -31 -91 -24.5t-81 47.5t-24.5 90t47.5 80l176 135q33 25 73.5 26t73.5 -26l176 -133q41 -31 48.5 -82z" glyph-name="circumflex" horiz-adv-x="716" unicode="ˆ"/><glyph d="M549 1945.5q51 -6.5 81 -48.5t23.5 -91t-45.5 -80l-176 -135q-33 -25 -74 -24.5t-73 24.5l-176 135q-41 31 -47.5 80t24.5 90t81 47.5t91 -24.5l100 -76l103 78q37 31 88 24.5z" glyph-name="caron" horiz-adv-x="716" unicode="ˇ"/><glyph d="M331 1581q-103 0 -180 67.5t-88 170.5q-4 39 18.5 68.5t61.5 33.5t69 -19.5t33 -59.5t27.5 -57.5t58.5 -21.5t58.5 22.5t27.5 57.5t31.5 58.5t67.5 20.5t62.5 -32.5t19.5 -66.5q-10 -104 -87 -173t-180 -69z" glyph-name="breve" horiz-adv-x="659" unicode="˘"/><glyph d="M338 1706q0 -57 -41 -98t-98.5 -41t-97.5 41t-40 98t40 98t97.5 41t98.5 -41t41 -98z" glyph-name="dotaccent" horiz-adv-x="399" unicode="˙"/><glyph d="M293 2036q96 0 163.5 -67.5t67.5 -164t-67.5 -164t-163.5 -67.5t-164 67.5t-68 164t68 164t164 67.5zM293 1874q-29 0 -48.5 -20.5t-19.5 -48.5t20.5 -48t48.5 -20t48 19.5t20 48t-20 49t-49 20.5z" glyph-name="ring" horiz-adv-x="585" unicode="˚"/><glyph d="M500 -272q31 -66 -72 -101q-158 -53 -246 29t-108 149q-35 109 16 211q33 66 97.5 110t122.5 50t94 -15.5t39 -61.5t-21 -70.5t-85 -34t-89.5 -38t-32.5 -77.5q-2 -76 56.5 -118t127.5 -17q35 12 39 12q44 11 62 -28z" glyph-name="ogonek" horiz-adv-x="567" unicode="˛"/><glyph d="M619.5 1886q63.5 0 84.5 -59.5t-4 -100.5q-61 -104 -158.5 -122.5t-209.5 57.5q-39 27 -68 -8q-57 -72 -133 -45q-43 14 -61.5 58t-1.5 87q39 106 155.5 137t200.5 -43q45 -39 76 -12q16 14 36 32.5t83.5 18.5z" glyph-name="tilde" horiz-adv-x="776" unicode="˜"/><glyph d="M242 1599q-39 -25 -88.5 -11t-75.5 61t-12 94t61 72l188 100q45 25 93.5 10.5t71 -59.5t9 -93.5t-58.5 -72.5zM715 1599q-39 -25 -89 -11t-76 61t-11.5 94t61.5 72l188 100q45 25 93.5 10.5t71 -59.5t9 -93.5t-58.5 -72.5z" glyph-name="hungarumlaut" horiz-adv-x="905" unicode="˝"/><glyph d="M1071.5 0q-67.5 0 -116 48t-48.5 114v1028h-499v-1028q0 -66 -47.5 -114t-115 -48t-115.5 48t-48 114v1192q0 66 48 114t116 48h825q68 0 115 -48.5t47 -113.5v-1192q0 -66 -47 -114t-114.5 -48z" glyph-name="Pi" horiz-adv-x="1304" unicode="Π"/><glyph d="M1645 287q59 0 101 -42t42 -101.5t-42 -101.5t-101 -42h-451q-104 0 -150 92q-29 61 -7 126t83 93q119 57 190.5 174t71.5 252q0 195 -134 333t-322.5 138t-322.5 -138t-134 -333q0 -135 70.5 -251.5t189.5 -174.5q61 -29 83 -94t-7 -125q-45 -92 -135 -92h-465 q-59 0 -101.5 42t-42.5 100t43 101.5t101 43.5h71q-135 217 -135 450q0 330 230.5 564.5t554 234.5t553 -234.5t229.5 -564.5q0 -233 -135 -450h72z" glyph-name="Omega" horiz-adv-x="1849" unicode="Ω"/><glyph d="M824 1024q67 0 115 -48t48 -116v-424q0 -188 -133 -320t-319 -132q-72 0 -127 16v-219q0 -68 -49 -116t-115 -48t-114 48t-48 116v1079q0 68 48 116t115 48t115 -48t48 -116v-424q0 -51 36.5 -88t90 -37t90.5 37t37 88v424q0 68 47.5 116t114.5 48z" glyph-name="mu" horiz-adv-x="1038" unicode="μ"/><glyph d="M1180 322q70 0 116.5 -49t46.5 -115t-47 -113t-116 -47q-162 0 -275.5 113.5t-113.5 275.5v313h-183l-131 -575q-18 -78 -73.5 -104.5t-121.5 -15.5t-102.5 68.5t-19.5 125.5l116 501h-32q-68 0 -115 48t-47 114t47 114t115 48h706q66 0 114 -50t48 -116v-471 q0 -27 19.5 -46t48.5 -19z" glyph-name="pi" horiz-adv-x="1394" unicode="π"/><glyph d="M1262 457h-1022q-66 0 -112 46t-46 111.5t46 111.5t112 46h1022q66 0 111.5 -46t45.5 -111.5t-45.5 -111.5t-111.5 -46z" glyph-name="endash" horiz-adv-x="1501" unicode="–"/><glyph d="M111 1157l-48 201q-14 63 28.5 112.5t96.5 46.5t85.5 -32t41.5 -70l47 -201q16 -82 -40 -128t-124.5 -22.5t-86.5 93.5z" glyph-name="quoteleft" horiz-adv-x="415" unicode="‘"/><glyph d="M305 1157q-14 -70 -83.5 -92.5t-119.5 16.5q-66 49 -49 133l47 201q8 41 42 69t86 32t95.5 -45.5t28.5 -112.5z" glyph-name="quoteright" horiz-adv-x="415" unicode="’"/><glyph d="M111 1157l-45 201q-14 63 27 112.5t95 46.5t86.5 -32t42.5 -70l45 -201q8 -37 -5 -74.5t-42 -58.5q-51 -37 -118.5 -15.5t-85.5 91.5zM467 1157l-47 201q-14 63 29 112.5t95 45.5t86 -32t42 -69l47 -201q10 -37 -4.5 -74.5t-44.5 -58.5q-51 -37 -120 -14.5t-83 90.5z" glyph-name="quotedblleft" horiz-adv-x="772" unicode="“"/><glyph d="M305 1157q-14 -70 -83.5 -91.5t-119.5 17.5q-68 47 -49 131l47 201q8 41 42 69t86 32t95.5 -45.5t28.5 -112.5zM662 1157q-18 -70 -87 -91.5t-118 17.5q-63 47 -47 131l45 201q8 41 41.5 69t86.5 32t95.5 -45.5t28.5 -112.5z" glyph-name="quotedblright" horiz-adv-x="772" unicode="”"/><glyph d="M305 -127q-14 -68 -83.5 -90.5t-119.5 16.5q-68 47 -49 131l47 201q8 41 42 68.5t86 31.5t95.5 -45t28.5 -112zM662 -127q-18 -68 -87 -90.5t-118 16.5q-63 47 -47 131l45 201q8 41 41.5 68.5t86.5 31.5t95.5 -45t28.5 -112z" glyph-name="quotedblbase" horiz-adv-x="770" unicode="„"/><glyph d="M1030 1022q59 0 101.5 -41t42.5 -100.5t-42 -101.5t-102 -42h-280v-983q0 -59 -42 -101t-101.5 -42t-100.5 42t-41 101v983h-281q-59 0 -101 42t-42 101.5t42 100.5t101 41h281v350q0 59 41 101.5t100.5 42.5t101.5 -42t42 -102v-350h280z" glyph-name="dagger" horiz-adv-x="1204" unicode="†"/><glyph d="M1032 672q57 0 99.5 -42t42.5 -101.5t-41 -101.5t-101 -42h-282v-631q0 -59 -42 -101t-101.5 -42t-100.5 42t-41 101v631h-283q-59 0 -100 42t-41 101.5t42 101.5t99 42h283v65h-283q-59 0 -100 41t-41 100.5t41 101.5t100 42h283v350q0 59 41 101.5t100.5 42.5 t101.5 -42t42 -102v-350h282q59 0 100.5 -42t41.5 -101.5t-42 -100.5t-100 -41h-282v-65h282z" glyph-name="daggerdbl" horiz-adv-x="1204" unicode="‡"/><glyph d="M645 506q0 -121 -86 -205t-207 -84t-206 84t-85 205t85 205t206 84t207 -84t86 -205z" glyph-name="bullet" horiz-adv-x="706" unicode="•"/><glyph d="M616 66q-27 -49 -73.5 -61.5t-87.5 11.5q-45 23 -60.5 72t6.5 90l672 1276q23 45 72 60.5t94 -7.5q43 -25 58.5 -71.5t-9.5 -94.5zM416 805q-148 0 -251.5 103.5t-103.5 251.5t104.5 254t250.5 106t253 -105.5t107 -253t-106 -252t-254 -104.5zM418 1276q-45 0 -79 -34 t-34 -80t34 -79.5t79 -33.5t79.5 33.5t34.5 79.5t-34.5 80t-79.5 34zM1274 0q-148 0 -252 106t-104 254t104 251.5t252 103.5t253 -104.5t105 -252t-105 -253t-253 -105.5zM2045 0q-146 0 -252.5 105.5t-106.5 253t105 252t254 104.5t252 -103.5t103 -251.5t-104.5 -254 t-250.5 -106zM1275 471q-48 0 -81 -32.5t-33 -80t33 -81t80 -33.5t81 33.5t34 81t-33 80t-81 32.5zM2045 471q-48 0 -82 -32.5t-34 -80t35 -81t82 -33.5t79 33.5t32 81t-32 80t-80 32.5z" glyph-name="perthousand" horiz-adv-x="2430" unicode="‰"/><glyph d="M450.5 129q-57.5 0 -100.5 41l-248 248q-41 45 -42 100t42 98l248 246q41 41 99.5 41t99.5 -40t41 -97t-41 -100l-150 -150l150 -149q41 -39 41 -98.5t-41 -99.5t-98.5 -40z" glyph-name="guilsinglleft" horiz-adv-x="641" unicode="‹"/><glyph d="M191.5 129q-56.5 0 -98.5 40t-42 99.5t41 98.5l150 149l-150 150q-41 41 -41 99t40 98t98.5 40t99.5 -41l248 -248q41 -41 42 -97t-42 -99l-248 -248q-41 -41 -97.5 -41z" glyph-name="guilsinglright" horiz-adv-x="638" unicode="›"/><glyph d="M268 57q-27 -43 -79 -53t-91 14t-51 73.5t14 92.5l795 1278q27 43 76 54.5t92 -13t54.5 -75t-15.5 -95.5z" glyph-name="fraction" horiz-adv-x="1110" unicode="⁄"/><glyph d="M721 870.5q0 -36.5 -24.5 -65.5t-61.5 -31v-53q0 -43 -31 -75t-74 -32t-72.5 32t-29.5 75v53h-276q-68 0 -92.5 45t6.5 92q53 89 211.5 319t158.5 232q35 54 86 54t82 -30t31 -73v-444q37 -2 61.5 -32t24.5 -66.5zM428 969v147l-102 -147h102z" glyph-name="uni2074" horiz-adv-x="772" unicode="⁴"/><glyph d="M193 449q-53 0 -92.5 38.5t-39.5 94t39 94.5t93 39h38q-2 14 -2 42.5t2 43.5h-38q-53 0 -92.5 39t-39.5 94t39 94t93 39h102q127 289 396.5 399.5t535.5 26.5q66 -20 97.5 -79.5t11.5 -124.5t-81 -96.5t-125 -10.5q-100 37 -227 8t-219 -123h254q53 0 92 -39t39 -94 t-39 -94t-92 -39h-379q-2 -14 -2 -43t2 -43h379q53 0 92 -39t39 -94.5t-39 -94t-92 -38.5h-254q92 -94 219 -123t227 8q63 20 124 -11.5t81.5 -97t-12.5 -125t-96 -77.5q-123 -43 -261.5 -33t-263 56t-234.5 151.5t-173 251.5h-102z" glyph-name="Euro" horiz-adv-x="1394" unicode="€"/><glyph d="M442 1516q35 0 59.5 -24t24.5 -58.5t-24.5 -58t-59.5 -23.5h-82v-523q0 -33 -23.5 -57t-58 -24t-58 24.5t-23.5 56.5v523h-82q-33 0 -58.5 23.5t-25.5 58t25.5 58.5t58.5 24h327zM1253 1516q37 0 62.5 -24t25.5 -58v-605q0 -33 -26.5 -57t-60.5 -24t-58.5 24.5 t-24.5 56.5v295l-147 -309q-20 -43 -67.5 -43t-67.5 43l-152 309v-295q0 -33 -23.5 -57t-57.5 -24t-58.5 24.5t-24.5 56.5v605q0 35 25 58.5t57 23.5q57 0 86 -64q4 -8 215 -442q211 434 215 442q25 64 82 64z" glyph-name="trademark" horiz-adv-x="1392" unicode="™"/><glyph d="M582 -12q-215 0 -368 152.5t-153 367.5t153 367.5t368 152.5q98 0 192 -39q-10 84 -73.5 142.5t-149.5 58.5h-92q-68 0 -115 48t-47 115t47 115t115 48h92q227 0 388 -161t161 -388l2 -439q0 -111 -26.5 -192.5t-98.5 -165.5t-177.5 -133t-217.5 -49zM581 313 q81 0 138 56.5t57 137.5t-57 138t-138 57t-137.5 -57t-56.5 -138t56.5 -137.5t137.5 -56.5z" glyph-name="partialdiff" horiz-adv-x="1183" unicode="∂"/><glyph d="M1067 0h-854q-74 0 -117 59.5t-16 128.5l426 1231q16 43 53 70t82 27t82 -27t51 -70l426 -1224q27 -70 -16 -132.5t-117 -62.5zM414 285h452l-225 653z" glyph-name="uni2206" horiz-adv-x="1269" unicode="∆"/><glyph d="M1425 1516q70 0 117 -48.5t47 -116t-47 -115.5t-117 -48h-77v-1413q0 -68 -50 -116t-118 -48t-115 48t-47 116v1413h-381v-1413q0 -68 -48 -116t-115.5 -48t-117 48t-49.5 116v1413h-82q-68 0 -116 48t-48 115.5t48.5 116t115.5 48.5h1200z" glyph-name="product" horiz-adv-x="1640" unicode="∏"/><glyph d="M971 -287h-758q-98 0 -144 86t9 166l444 662l-444 633q-57 82 -11 169t146 87h758q68 0 116 -49t48 -115t-48.5 -114t-115.5 -48h-445l330 -465q29 -43 29 -93t-29 -91l-338 -502h453q68 0 116 -48t48 -116t-48 -115t-116 -47z" glyph-name="summation" horiz-adv-x="1175" unicode="∑"/><glyph d="M186 735q-59 0 -102 42t-43 101.5t43 102.5t102 43h211q45 0 81 -25.5t52 -66.5l160 -397l361 897q23 53 79 76.5t110 0.5t77.5 -78t1.5 -110l-500 -1235q-31 -74 -108 -88q-51 -8 -95.5 17.5t-64.5 72.5l-254 647h-111z" glyph-name="radical" horiz-adv-x="1370" unicode="√"/><glyph d="M1364 965q174 0 300 -127.5t126 -307.5t-125 -307t-301 -127q-213 0 -438 221q-225 -221 -439 -221q-176 0 -301 127t-125 306t126 307.5t300 128.5q213 0 439 -222q225 222 438 222zM487 373q111 0 261 157q-150 158 -261 158q-61 0 -105 -45t-44 -112.5t44 -112.5 t105 -45zM1364 373q61 0 105 45t44 112.5t-44 112.5t-105 45q-111 0 -260 -158q149 -157 260 -157z" glyph-name="infinity" horiz-adv-x="1841" unicode="∞"/><glyph d="M193 -389q-59 0 -100.5 42t-41.5 101.5t41.5 102.5t91.5 43t77.5 26.5t27.5 65.5v1108q0 172 120.5 294t295.5 122q59 0 101 -42t42 -101.5t-42 -102.5t-98 -43t-95.5 -37t-39.5 -90v-1108q0 -158 -111 -269.5t-269 -111.5z" glyph-name="integral" horiz-adv-x="888" unicode="∫"/><glyph d="M382 633q-108 0 -132 -19q-47 -20 -94 1.5t-68 70.5q-16 47 4.5 93t67.5 61q74 35 221 34.5t287 -49.5q102 -25 191 -9.5t143 48.5t101.5 23t72.5 -53q29 -43 18.5 -93t-53.5 -79q-113 -76 -262 -96.5t-269 23.5t-228 44zM1143 330q-117 -78 -259 -97.5t-266 21.5 t-230.5 44t-133.5 -15q-49 -18 -96 2t-66 69q-16 49 4.5 94.5t67.5 63.5q76 35 222 33t286 -51q100 -27 190 -9.5t142 50.5t101.5 20.5t74.5 -55.5q29 -43 17.5 -92t-54.5 -78z" glyph-name="approxequal" horiz-adv-x="1271" unicode="≈"/><glyph d="M1038 573q59 0 99.5 -40.5t40.5 -98t-41 -97.5t-99 -40h-424l-114 -231q-23 -49 -70 -62.5t-90 8.5t-59.5 68.5t6.5 91.5l63 125h-129q-57 0 -98 40t-41 97.5t41 98t98 40.5h264l33 64h-297q-57 0 -98 40t-41 98t41 98t98 40h432l107 213q23 45 68.5 60.5t89.5 -4.5 t60.5 -67.5t-5.5 -92.5l-53 -109h118q57 0 98.5 -39.5t41.5 -97.5t-40 -98.5t-100 -40.5h-256l-30 -64h286z" glyph-name="notequal" horiz-adv-x="1249" unicode="≠"/><glyph d="M92 688q0 92 86 123l686 244q49 18 100.5 -5.5t68.5 -74.5t-5 -98.5t-76 -65.5l-340 -123l340 -123q51 -18 74.5 -66.5t3.5 -103.5t-70.5 -74.5t-95.5 1.5l-686 243q-86 31 -86 123zM920 0h-705q-55 0 -94 37t-39 91t39 93t94 39h705q55 0 92 -39t37 -93t-37 -91t-92 -37 z" glyph-name="lessequal" horiz-adv-x="1120" unicode="≤"/><glyph d="M1032 687q0 -91 -88 -122l-686 -243q-127 -33 -170 79q-18 47 5.5 96.5t74.5 67.5l342 121l-342 125q-51 16 -74.5 64.5t-5.5 99.5t68.5 74.5t101.5 5.5l686 -244q88 -33 88 -124zM907 0h-702q-55 0 -94 37t-39 91t40 93t93 39h702q53 0 93 -39t40 -93t-39 -91t-94 -37z " glyph-name="greaterequal" horiz-adv-x="1122" unicode="≥"/><glyph d="M557 0q-80 0 -123 70l-364 616q-41 72 0 143l364 617q43 70 123 70t123 -70l364 -617q45 -72 0 -143l-364 -616q-43 -70 -123 -70zM358 758l199 -336l199 336l-199 336z" glyph-name="lozenge" horiz-adv-x="1105" unicode="◊"/></font>
</defs>
</svg>
